<?xml version="1.0" standalone="no"?>
<!DOCTYPE svg PUBLIC "-//W3C//DTD SVG 1.1//EN" "http://www.w3.org/Graphics/SVG/1.1/DTD/svg11.dtd" >
<svg>
<metadata>
Created by FontForge 20090622 at Fri Nov 22 21:44:08 2019
 By deploy user
Copyright &#194;&#169; 2014 by Type Dynamic. All rights reserved.
</metadata>
<defs>
<font id="Sailec-Black" horiz-adv-x="309" >
  <font-face 
    font-family="Sailec Black"
    font-weight="900"
    font-stretch="normal"
    units-per-em="1000"
    panose-1="0 0 10 0 0 0 0 0 0 0"
    ascent="750"
    descent="-250"
    x-height="521"
    cap-height="748"
    bbox="-221 -422 1302 1089"
    underline-thickness="50"
    underline-position="-50"
    unicode-range="U+000D-U+FB02"
  />
<missing-glyph horiz-adv-x="755" 
d="M697 0h-639v748h639v-748zM299 619l81 -131l81 131h-162zM196 223l100 149l-100 149v-298zM464 372l95 -141v282zM302 129h156l-78 126z" />
    <glyph glyph-name="fi" unicode="fi" horiz-adv-x="711" 
d="M557 788q44 0 75 -31.5t31 -75.5t-31 -75t-75 -31t-75 31t-31 75t31.5 75.5t74.5 31.5zM328 784q35 0 58 -4v-157q-15 3 -37 3q-33 0 -54.5 -19t-21.5 -48v-38h113v-156h-113v-365h-183v365h-89v156h89v34q0 103 65.5 166t172.5 63zM648 0h-182v521h182v-521z" />
    <glyph glyph-name="f_j" unicode="fj" horiz-adv-x="711" 
d="M557 788q44 0 75 -31.5t31 -75.5t-31 -75t-75 -31t-75 31t-31 75t31 75.5t75 31.5zM328 784q35 0 58 -4v-157q-15 3 -37 3q-33 0 -54.5 -19t-21.5 -48v-38h113v-156h-113v-365h-183v365h-89v156h89v34q0 103 65.5 166t172.5 63zM648 521v-555q0 -103 -65.5 -166
t-172.5 -63q-35 0 -58 4v157q15 -3 38 -3q32 0 54 19.5t22 47.5v559h182z" />
    <glyph glyph-name=".notdef" horiz-adv-x="755" 
d="M697 0h-639v748h639v-748zM299 619l81 -131l81 131h-162zM196 223l100 149l-100 149v-298zM464 372l95 -141v282zM302 129h156l-78 126z" />
    <glyph glyph-name=".null" horiz-adv-x="0" 
 />
    <glyph glyph-name="nonmarkingreturn" horiz-adv-x="333" 
 />
    <glyph glyph-name="CR" unicode="&#xd;" horiz-adv-x="600" 
 />
    <glyph glyph-name="space" unicode=" " horiz-adv-x="218" 
 />
    <glyph glyph-name="exclam" unicode="!" horiz-adv-x="350" 
d="M272 244h-193l-11 504h214zM175 201q44 0 75 -31t31 -75q0 -45 -31 -75.5t-75 -30.5t-75 30.5t-31 75.5q0 44 31 75t75 31z" />
    <glyph glyph-name="quotedbl" unicode="&#x22;" horiz-adv-x="473" 
d="M192 449h-137l-16 314h170zM418 449h-137l-17 314h170z" />
    <glyph glyph-name="numbersign" unicode="#" horiz-adv-x="689" 
d="M586 576h98l-34 -145h-98l-29 -121h98l-34 -145h-98l-40 -165h-148l39 165h-91l-39 -165h-148l39 165h-96l34 145h97l28 121h-96l35 145h96l41 172h148l-41 -172h91l41 172h148zM312 431l-28 -121h91l28 121h-91z" />
    <glyph glyph-name="dollar" unicode="$" horiz-adv-x="668" 
d="M629 226q0 -101 -59 -159.5t-156 -72.5v-112h-151v114q-105 18 -165 82t-59 164l197 10q-1 -43 30.5 -69.5t81.5 -26.5q84 0 84 60q0 27 -30 45.5t-97 35.5q-60 15 -98 29.5t-76 39.5t-56.5 63t-18.5 91q0 89 53.5 153t153.5 81v111h151v-114q94 -20 148.5 -81t55.5 -154
l-197 -10q0 39 -23 62.5t-66 23.5q-36 0 -57.5 -17.5t-21.5 -48.5q0 -28 25.5 -43t98.5 -32q126 -34 189 -83t63 -142z" />
    <glyph glyph-name="percent" unicode="%" horiz-adv-x="924" 
d="M212 759q81 0 132 -53.5t51 -139.5q0 -87 -51 -140.5t-132 -53.5t-133 53.5t-52 140.5q0 86 52 139.5t133 53.5zM314 0h-175l472 748h175zM212 633q-52 0 -52 -67q0 -32 14 -50t38 -18q50 0 50 68q0 67 -50 67zM714 376q81 0 132 -53t51 -140t-51 -140.5t-132 -53.5
t-133 53.5t-52 140.5t52 140t133 53zM714 250q-52 0 -52 -67q0 -32 14 -50t38 -18q50 0 50 68q0 67 -50 67z" />
    <glyph glyph-name="ampersand" unicode="&#x26;" horiz-adv-x="734" 
d="M651 -11l-111 90q-91 -90 -226 -90q-134 0 -205.5 63t-71.5 158q0 115 108 195q-55 64 -55 134q0 106 68 163t182 57q100 0 167.5 -53.5t83.5 -148.5l-187 -16q-8 63 -64 63q-27 0 -42.5 -16.5t-15.5 -45.5q0 -6 1.5 -12.5t3 -11.5t5 -11l6 -10t8.5 -10t8.5 -9t10.5 -9.5
t10.5 -9t11.5 -9.5t11 -9l138 -112q12 33 26 95l171 -43q-26 -96 -58 -163l117 -95zM317 152q50 0 92 33l-146 118q-31 -29 -31 -76q0 -36 23 -55.5t62 -19.5z" />
    <glyph glyph-name="quotesingle" unicode="'" horiz-adv-x="247" 
d="M192 449h-137l-16 314h170z" />
    <glyph glyph-name="parenleft" unicode="(" horiz-adv-x="324" 
d="M152 740l158 -55q-93 -174 -93 -365q0 -193 93 -365l-158 -55q-117 180 -117 420q0 238 117 420z" />
    <glyph glyph-name="parenright" unicode=")" horiz-adv-x="324" 
d="M15 685l157 55q118 -183 118 -420q0 -239 -118 -420l-157 55q92 173 92 365q0 190 -92 365z" />
    <glyph glyph-name="asterisk" unicode="*" horiz-adv-x="390" 
d="M242 648l113 40l31 -94l-115 -36l73 -93l-81 -60l-68 99l-68 -100l-80 60l72 94l-114 36l31 94l112 -40l-3 120h100z" />
    <glyph glyph-name="plus" unicode="+" horiz-adv-x="548" 
d="M363 452h155v-164h-155v-162h-177v162h-156v164h156v163h177v-163z" />
    <glyph glyph-name="comma" unicode="," horiz-adv-x="270" 
d="M236 84v-1q-2 -164 -177 -252v75q53 32 70 84q-41 4 -68 33.5t-27 71.5q0 44 29.5 75t74.5 31q46 0 72 -32.5t26 -84.5z" />
    <glyph glyph-name="hyphen" unicode="-" horiz-adv-x="408" 
d="M363 177h-318v171h318v-171z" />
    <glyph glyph-name="period" unicode="." horiz-adv-x="281" 
d="M140 201q44 0 75 -31t31 -75q0 -45 -31 -75.5t-75 -30.5t-75 30.5t-31 75.5q0 44 31 75t75 31z" />
    <glyph glyph-name="slash" unicode="/" horiz-adv-x="455" 
d="M195 -67h-190l255 815h190z" />
    <glyph glyph-name="zero" unicode="0" horiz-adv-x="655" 
d="M327 759q131 0 212 -101.5t81 -283.5t-81 -283.5t-212 -101.5q-130 0 -211 101.5t-81 283.5t81 283.5t211 101.5zM327 588q-51 0 -73 -52.5t-22 -161.5t22 -161.5t73 -52.5q52 0 74 52.5t22 161.5t-22 161.5t-74 52.5z" />
    <glyph glyph-name="one" unicode="1" horiz-adv-x="406" 
d="M340 0h-193v513l-75 -48l-80 153l206 130h142v-748z" />
    <glyph glyph-name="two" unicode="2" horiz-adv-x="546" 
d="M279 759q114 0 176.5 -54.5t62.5 -159.5q0 -57 -21 -109t-43.5 -81.5t-62.5 -71.5l-106 -112h235v-171h-476v146l197 223q49 56 66 89t17 78q0 52 -41 52q-26 0 -35.5 -18.5t-10.5 -57.5l-193 10q2 112 63.5 174.5t171.5 62.5z" />
    <glyph glyph-name="three" unicode="3" horiz-adv-x="575" 
d="M285 759q115 0 178.5 -61.5t63.5 -166.5q0 -52 -16 -83.5t-48 -61.5q32 -19 52.5 -60.5t20.5 -97.5q0 -112 -69.5 -175.5t-182.5 -63.5q-122 0 -187.5 62.5t-66.5 170.5l193 11q0 -73 60 -73q59 0 59 74q0 34 -18.5 52t-50.5 18h-79v161h77q28 0 45 17t17 47q0 59 -49 59
q-52 0 -52 -68l-193 11q2 108 65 168t181 60z" />
    <glyph glyph-name="four" unicode="4" horiz-adv-x="608" 
d="M481 274h104v-171h-104v-103h-163v103h-291v159l308 486h146v-474zM212 274h106v167z" />
    <glyph glyph-name="five" unicode="5" horiz-adv-x="577" 
d="M307 485q104 0 169 -62.5t65 -179.5t-70 -185.5t-190 -68.5q-116 0 -182 59.5t-67 159.5l193 12q0 -28 14.5 -44t42.5 -16q65 0 65 78q0 75 -59 75q-32 0 -53 -15h-178v450h454v-171h-261v-100q26 8 57 8z" />
    <glyph glyph-name="six" unicode="6" horiz-adv-x="617" 
d="M555 748l-180 -257q93 -18 150.5 -84.5t57.5 -162.5q0 -114 -77 -184.5t-195 -70.5q-119 0 -196.5 70.5t-77.5 184.5q0 78 58 166l229 338h231zM310 160q36 0 56.5 24.5t20.5 66.5q0 43 -20.5 67t-56.5 24q-39 0 -62 -31q-15 -25 -15 -60q0 -42 20.5 -66.5t56.5 -24.5z
" />
    <glyph glyph-name="seven" unicode="7" horiz-adv-x="541" 
d="M510 593l-256 -593h-213l257 577h-280v171h492v-155z" />
    <glyph glyph-name="eight" unicode="8" horiz-adv-x="624" 
d="M311 759q111 0 182 -58.5t71 -158.5q0 -83 -50 -139q70 -67 70 -173q0 -111 -76.5 -176t-195.5 -65t-195.5 65t-76.5 176q0 106 68 172q-49 57 -49 140q0 100 70.5 158.5t181.5 58.5zM312 588q-26 0 -42.5 -16.5t-16.5 -44.5q0 -27 17 -44t42 -17q26 0 42.5 16.5
t16.5 44.5q0 29 -16 45t-43 16zM312 322q-35 0 -57 -22t-22 -60q0 -37 22 -58.5t57 -21.5t57 21.5t22 58.5q0 38 -22 60t-57 22z" />
    <glyph glyph-name="nine" unicode="9" horiz-adv-x="617" 
d="M306 759q119 0 196.5 -70.5t77.5 -184.5q0 -78 -58 -166l-229 -338h-231l180 257q-93 18 -150.5 84.5t-57.5 162.5q0 114 77 184.5t195 70.5zM307 406q39 0 62 31q15 25 15 60q0 42 -20.5 66.5t-56.5 24.5t-56.5 -24.5t-20.5 -66.5q0 -43 20.5 -67t56.5 -24z" />
    <glyph glyph-name="colon" unicode=":" horiz-adv-x="281" 
d="M129 532q44 0 75.5 -31.5t31.5 -75.5t-31.5 -74.5t-75.5 -30.5t-74.5 30.5t-30.5 74.5t30.5 75.5t74.5 31.5zM129 201q44 0 75.5 -31t31.5 -75q0 -45 -31 -75.5t-76 -30.5q-44 0 -74.5 30.5t-30.5 75.5q0 44 30.5 75t74.5 31z" />
    <glyph glyph-name="semicolon" unicode=";" horiz-adv-x="281" 
d="M129 320q-44 0 -74.5 30.5t-30.5 74.5t30.5 75.5t74.5 31.5t75.5 -31.5t31.5 -75.5t-31.5 -74.5t-75.5 -30.5zM138 201q46 0 72 -32.5t26 -83.5v-1v-1q-2 -164 -177 -252v75q53 32 70 84q-41 4 -68 33.5t-27 71.5q0 44 29.5 75t74.5 31z" />
    <glyph glyph-name="less" unicode="&#x3c;" horiz-adv-x="550" 
d="M521 449l-136 -80l136 -80v-208l-491 288l491 287v-207z" />
    <glyph glyph-name="equal" unicode="=" horiz-adv-x="548" 
d="M518 410h-488v171h488v-171zM518 162h-488v170h488v-170z" />
    <glyph glyph-name="greater" unicode="&#x3e;" horiz-adv-x="550" 
d="M520 369l-490 -288v208l135 80l-135 80v207z" />
    <glyph glyph-name="question" unicode="?" horiz-adv-x="555" 
d="M278 761q121 0 191.5 -62.5t70.5 -171.5q0 -38 -16 -70.5t-32.5 -49t-45.5 -40.5q-2 -2 -12.5 -10.5l-13.5 -11t-11 -10t-11 -11l-8.5 -10t-7 -11.5l-3.5 -11.5t-2 -13.5v-34h-192v41q0 29 17 58t31.5 43.5t46.5 42.5q24 23 33 32.5t20 28t11 34.5q0 33 -18 49.5
t-48 16.5q-31 0 -50.5 -21.5t-20.5 -59.5l-192 11q1 109 74 175t189 66zM281 201q44 0 75 -31t31 -75q0 -45 -31 -75.5t-75 -30.5t-75 30.5t-31 75.5q0 44 31 75t75 31z" />
    <glyph glyph-name="at" unicode="@" horiz-adv-x="793" 
d="M599 442v-299q0 -29 29 -29q25 0 41.5 33t16.5 100q0 125 -82.5 207.5t-207.5 82.5q-126 0 -207.5 -82.5t-81.5 -207.5q0 -129 83.5 -209t197.5 -80q101 0 176 40l28 -65q-76 -43 -204 -43q-148 0 -251 100t-103 257q0 155 102 257t260 102q157 0 260 -102t103 -257
q0 -106 -44.5 -159.5t-123.5 -53.5q-78 0 -109 48q-45 -50 -118 -50q-86 0 -139.5 59.5t-53.5 153.5q0 95 53.5 154t139.5 59q66 0 104 -36v20h131zM461 238v14q0 38 -20 60.5t-54 22.5t-54 -23.5t-20 -66.5q0 -42 20 -66.5t54 -24.5t54 23t20 61z" />
    <glyph glyph-name="A" unicode="A" horiz-adv-x="823" 
d="M819 0h-212l-52 119h-287l-52 -119h-212l326 748h163zM333 267h157l-79 182z" />
    <glyph glyph-name="B" unicode="B" horiz-adv-x="718" 
d="M66 748h333q109 0 174.5 -53.5t65.5 -159.5q0 -81 -61 -140q39 -20 64.5 -64t25.5 -106q0 -107 -67.5 -166t-181.5 -59h-353v748zM259 577v-113h116q67 0 67 56q0 57 -65 57h-118zM259 300v-129h137q75 0 75 64q0 65 -76 65h-136z" />
    <glyph glyph-name="C" unicode="C" horiz-adv-x="837" 
d="M433 759q140 0 241 -78t122 -211l-202 -19q-31 137 -168 137q-85 0 -135 -58.5t-50 -155.5q0 -103 51.5 -158.5t133.5 -55.5q66 0 110.5 35t57.5 102l202 -17q-21 -134 -122 -212.5t-241 -78.5q-172 0 -280.5 104t-108.5 281t108.5 281t280.5 104z" />
    <glyph glyph-name="D" unicode="D" horiz-adv-x="805" 
d="M66 748h317q167 0 272.5 -101t105.5 -273t-105.5 -273t-272.5 -101h-317v748zM259 582v-416h126q88 0 136.5 52t48.5 156t-48.5 156t-136.5 52h-126z" />
    <glyph glyph-name="E" unicode="E" horiz-adv-x="608" 
d="M556 577h-297v-112h254v-167h-254v-127h298v-171h-491v748h490v-171z" />
    <glyph glyph-name="F" unicode="F" horiz-adv-x="592" 
d="M556 577h-297v-109h237v-171h-237v-297h-193v748h490v-171z" />
    <glyph glyph-name="G" unicode="G" horiz-adv-x="843" 
d="M796 426v-62q0 -167 -98 -271t-265 -104q-172 0 -280.5 104t-108.5 281t108.5 281t280.5 104q132 0 226.5 -66t128.5 -186l-200 -33q-36 114 -157 114q-91 0 -140.5 -53.5t-49.5 -160.5t49.5 -160.5t140.5 -53.5q112 0 149 95h-149v171h365z" />
    <glyph glyph-name="H" unicode="H" horiz-adv-x="768" 
d="M702 0h-193v296h-250v-296h-193v748h193v-281h250v281h193v-748z" />
    <glyph glyph-name="I" unicode="I" horiz-adv-x="325" 
d="M259 0h-193v748h193v-748z" />
    <glyph glyph-name="J" unicode="J" horiz-adv-x="635" 
d="M574 748v-463q0 -139 -74.5 -217.5t-207.5 -78.5q-121 0 -195 69t-82 194l193 32q8 -124 86 -124q87 0 87 118v470h193z" />
    <glyph glyph-name="K" unicode="K" horiz-adv-x="749" 
d="M480 450l262 -450h-221l-169 293l-93 -116v-177h-193v748h193v-280l214 280h248z" />
    <glyph glyph-name="L" unicode="L" horiz-adv-x="591" 
d="M259 171h297v-171h-490v748h193v-577z" />
    <glyph glyph-name="M" unicode="M" horiz-adv-x="969" 
d="M903 0h-193v319l-161 -309h-127l-163 309v-319h-193v748h172l248 -455l245 455h172v-748z" />
    <glyph glyph-name="N" unicode="N" horiz-adv-x="773" 
d="M707 0h-165l-283 392v-392h-193v748h164l284 -394v394h193v-748z" />
    <glyph glyph-name="O" unicode="O" horiz-adv-x="880" 
d="M441 759q174 0 284.5 -105.5t110.5 -279.5t-110.5 -279.5t-284.5 -105.5q-176 0 -286.5 105.5t-110.5 279.5t110.5 279.5t286.5 105.5zM441 588q-92 0 -146 -57.5t-54 -156.5t54 -156.5t146 -57.5q91 0 144.5 57.5t53.5 156.5t-53.5 156.5t-144.5 57.5z" />
    <glyph glyph-name="P" unicode="P" horiz-adv-x="678" 
d="M66 748h342q114 0 181.5 -66.5t67.5 -183.5q0 -116 -67.5 -182.5t-181.5 -66.5h-149v-249h-193v748zM259 577v-158h125q35 0 56 21t21 58t-21 58t-56 21h-125z" />
    <glyph glyph-name="Q" unicode="Q" horiz-adv-x="886" 
d="M744 -78l-110 109q-87 -42 -193 -42q-176 0 -286.5 105.5t-110.5 279.5t110.5 279.5t286.5 105.5q174 0 284.5 -105.5t110.5 -279.5q0 -124 -59 -216l102 -100zM441 160q29 0 55 6l-86 85l136 135l85 -83q8 34 8 71q0 99 -53.5 156.5t-144.5 57.5q-92 0 -146 -57.5
t-54 -156.5t54 -156.5t146 -57.5z" />
    <glyph glyph-name="R" unicode="R" horiz-adv-x="720" 
d="M474 0l-133 250h-82v-250h-193v748h338q114 0 181.5 -66t67.5 -183q0 -153 -112 -216l151 -283h-218zM259 421h122q36 0 56 21t20 57t-20 57t-56 21h-122v-156z" />
    <glyph glyph-name="S" unicode="S" horiz-adv-x="668" 
d="M328 759q131 0 210 -65t80 -178l-197 -10q0 39 -23 62.5t-66 23.5q-36 0 -57.5 -17.5t-21.5 -48.5q0 -28 25.5 -43t98.5 -32q126 -34 189 -83t63 -142q0 -118 -79 -177.5t-202 -59.5q-140 0 -225 66.5t-84 186.5l197 10q-1 -43 30.5 -69.5t81.5 -26.5q84 0 84 60
q0 27 -30 45.5t-97 35.5q-60 15 -98 29.5t-76 39.5t-56.5 63t-18.5 91q0 103 70.5 171t201.5 68z" />
    <glyph glyph-name="T" unicode="T" horiz-adv-x="700" 
d="M680 577h-233v-577h-193v577h-234v171h660v-171z" />
    <glyph glyph-name="U" unicode="U" horiz-adv-x="785" 
d="M723 748v-430q0 -155 -87.5 -242t-242.5 -87q-156 0 -244 87t-88 242v430h193v-427q0 -161 139 -161q138 0 138 161v427h192z" />
    <glyph glyph-name="V" unicode="V" horiz-adv-x="807" 
d="M485 0h-163l-315 748h211l185 -449l185 449h212z" />
    <glyph glyph-name="W" unicode="W" horiz-adv-x="1129" 
d="M861 0h-163l-134 413l-134 -413h-162l-261 748h212l132 -430l134 430h159l133 -430l133 430h212z" />
    <glyph glyph-name="X" unicode="X" horiz-adv-x="749" 
d="M518 380l217 -380h-223l-137 252l-138 -252h-223l217 380l-204 368h223l125 -239l124 239h223z" />
    <glyph glyph-name="Y" unicode="Y" horiz-adv-x="776" 
d="M485 274v-274h-193v274l-284 474h224l156 -282l156 282h224z" />
    <glyph glyph-name="Z" unicode="Z" horiz-adv-x="631" 
d="M587 602l-302 -431h313v-171h-560v146l301 431h-301v171h549v-146z" />
    <glyph glyph-name="bracketleft" unicode="[" horiz-adv-x="333" 
d="M313 567h-81v-493h81v-151h-264v795h264v-151z" />
    <glyph glyph-name="backslash" unicode="\" horiz-adv-x="455" 
d="M450 -67h-190l-255 815h190z" />
    <glyph glyph-name="bracketright" unicode="]" horiz-adv-x="333" 
d="M284 -77h-264v151h81v493h-81v151h264v-795z" />
    <glyph glyph-name="asciicircum" unicode="^" horiz-adv-x="621" 
d="M596 371h-207l-79 115l-78 -115h-207l285 397z" />
    <glyph glyph-name="underscore" unicode="_" horiz-adv-x="690" 
d="M645 -171h-600v171h600v-171z" />
    <glyph glyph-name="grave" unicode="`" horiz-adv-x="287" 
d="M283 600h-142l-137 191h206z" />
    <glyph glyph-name="a" unicode="a" horiz-adv-x="566" 
d="M282 532q111 0 168.5 -53.5t57.5 -159.5v-319h-171v37q-44 -48 -126 -48q-81 0 -126.5 39.5t-45.5 114.5q0 151 228 161l59 2v27q0 49 -41 49q-24 0 -37 -14.5t-13 -31.5l-182 6q0 74 64.5 132t164.5 58zM325 200l-46 -2q-58 -3 -58 -40q0 -36 41 -36q25 0 44 15t19 38
v25z" />
    <glyph glyph-name="b" unicode="b" horiz-adv-x="662" 
d="M245 777v-281q47 36 127 36q112 0 181.5 -75.5t69.5 -196.5q0 -120 -69.5 -195.5t-181.5 -75.5q-86 0 -137 45v-34h-172v777h182zM341 376q-43 0 -69.5 -29.5t-26.5 -76.5v-19q0 -47 26.5 -76.5t69.5 -29.5q45 0 71.5 30.5t26.5 84.5q0 55 -26.5 85.5t-71.5 30.5z" />
    <glyph glyph-name="c" unicode="c" horiz-adv-x="601" 
d="M313 532q98 0 168 -55t86 -150l-179 -16q-4 30 -24 47.5t-51 17.5q-41 0 -65.5 -31t-24.5 -85t24.5 -84.5t65.5 -30.5q31 0 51 17.5t24 47.5l178 -15q-15 -95 -85 -150.5t-168 -55.5q-121 0 -197.5 73t-76.5 198q0 126 76.5 199t197.5 73z" />
    <glyph glyph-name="d" unicode="d" horiz-adv-x="662" 
d="M599 0h-172v34q-51 -45 -137 -45q-112 0 -181.5 75.5t-69.5 195.5q0 121 69.5 196.5t181.5 75.5q80 0 127 -36v281h182v-777zM321 376q-45 0 -71.5 -30.5t-26.5 -85.5q0 -54 26.5 -84.5t71.5 -30.5q43 0 69.5 29.5t26.5 76.5v19q0 47 -26.5 76.5t-69.5 29.5z" />
    <glyph glyph-name="e" unicode="e" horiz-adv-x="603" 
d="M564 211h-331q0 -82 76 -82q53 0 67 40l183 -9q-12 -78 -81.5 -124.5t-163.5 -46.5q-125 0 -200 73.5t-75 197.5t74.5 198t195.5 74q116 0 185.5 -69t69.5 -193v-59zM307 398q-33 0 -52.5 -21.5t-21.5 -58.5h147q-3 80 -73 80z" />
    <glyph glyph-name="f" unicode="f" horiz-adv-x="403" 
d="M328 784q35 0 58 -4v-157q-15 3 -37 3q-33 0 -54.5 -19t-21.5 -48v-38h113v-156h-113v-365h-183v365h-89v156h89v34q0 103 65.5 166t172.5 63z" />
    <glyph glyph-name="g" unicode="g" horiz-adv-x="650" 
d="M290 532q86 0 137 -45v34h172v-534q0 -114 -74 -183t-198 -69q-126 0 -195 55.5t-83 153.5l182 6q5 -61 89 -61q46 0 71.5 21.5t25.5 63.5v51q-49 -36 -127 -36q-112 0 -181.5 75.5t-69.5 195.5q0 121 69.5 196.5t181.5 75.5zM321 376q-45 0 -71.5 -30.5t-26.5 -85.5
q0 -54 26.5 -84.5t71.5 -30.5q43 0 69.5 29.5t26.5 76.5v19q0 47 -26.5 76.5t-69.5 29.5z" />
    <glyph glyph-name="h" unicode="h" horiz-adv-x="625" 
d="M245 777v-285q44 40 118 40q93 0 148 -54t55 -153v-325h-182v281q0 81 -68 81q-33 0 -52 -21.5t-19 -60.5v-280h-182v777h182z" />
    <glyph glyph-name="i" unicode="i" 
d="M154 788q44 0 75 -31.5t31 -75.5t-31 -75t-75 -31t-75 31t-31 75t31.5 75.5t74.5 31.5zM245 0h-182v521h182v-521z" />
    <glyph glyph-name="j" unicode="j" 
d="M154 788q44 0 75 -31.5t31 -75.5t-31 -75t-75 -31t-75 31t-31 75t31 75.5t75 31.5zM245 521v-555q0 -103 -65.5 -166t-172.5 -63q-35 0 -58 4v157q15 -3 38 -3q32 0 54 19.5t22 47.5v559h182z" />
    <glyph glyph-name="k" unicode="k" horiz-adv-x="609" 
d="M245 362l131 159h222l-183 -220l190 -301h-215l-104 164l-41 -47v-117h-182v777h182v-415z" />
    <glyph glyph-name="l" unicode="l" 
d="M245 0h-182v777h182v-777z" />
    <glyph glyph-name="m" unicode="m" horiz-adv-x="927" 
d="M669 532q93 0 146.5 -54t53.5 -154v-324h-182v281q0 81 -63 81q-67 0 -67 -82v-280h-182v281q0 81 -64 81q-66 0 -66 -82v-280h-182v521h172v-36q38 47 122 47q109 0 161 -71q52 71 151 71z" />
    <glyph glyph-name="n" unicode="n" horiz-adv-x="624" 
d="M363 532q93 0 148 -54t55 -153v-325h-182v281q0 81 -68 81q-33 0 -52 -21.5t-19 -60.5v-280h-182v521h172v-36q38 47 128 47z" />
    <glyph glyph-name="o" unicode="o" horiz-adv-x="643" 
d="M321 532q125 0 204 -75.5t79 -196.5t-79 -196t-204 -75q-124 0 -203 75t-79 196t79 196.5t203 75.5zM321 376q-45 0 -71.5 -31t-26.5 -85t26.5 -84.5t71.5 -30.5q46 0 72.5 30.5t26.5 84.5t-26.5 85t-72.5 31z" />
    <glyph glyph-name="p" unicode="p" horiz-adv-x="662" 
d="M372 532q112 0 181.5 -75.5t69.5 -196.5q0 -120 -69.5 -195.5t-181.5 -75.5q-80 0 -127 36v-280h-182v776h172v-34q51 45 137 45zM341 376q-43 0 -69.5 -29.5t-26.5 -76.5v-19q0 -47 26.5 -76.5t69.5 -29.5q45 0 71.5 30.5t26.5 84.5q0 55 -26.5 85.5t-71.5 30.5z" />
    <glyph glyph-name="q" unicode="q" horiz-adv-x="662" 
d="M290 532q86 0 137 -45v34h172v-776h-182v280q-47 -36 -127 -36q-112 0 -181.5 75.5t-69.5 195.5q0 121 69.5 196.5t181.5 75.5zM321 376q-45 0 -71.5 -30.5t-26.5 -85.5q0 -54 26.5 -84.5t71.5 -30.5q43 0 69.5 29.5t26.5 76.5v19q0 47 -26.5 76.5t-69.5 29.5z" />
    <glyph glyph-name="r" unicode="r" horiz-adv-x="402" 
d="M376 526v-176q-60 0 -95.5 -29t-35.5 -78v-243h-182v521h176v-44q45 49 137 49z" />
    <glyph glyph-name="s" unicode="s" horiz-adv-x="510" 
d="M252 532q103 0 160 -46t63 -125l-182 -10q2 53 -41 53q-38 0 -38 -31q0 -9 4.5 -15.5t17.5 -12.5t22 -8.5l35 -9.5q7 -2 11 -3q88 -24 131.5 -56.5t43.5 -97.5q0 -83 -58.5 -132t-165.5 -49q-216 0 -231 171l183 10q-2 -53 48 -53q41 0 41 34q0 15 -14.5 24.5t-60.5 21.5
q-101 25 -145 57t-44 107q0 79 59 125t161 46z" />
    <glyph glyph-name="t" unicode="t" horiz-adv-x="433" 
d="M286 365l-1 -146q0 -32 20.5 -49.5t49.5 -17.5q21 0 43 4v-161q-48 -6 -88 -6q-97 0 -152.5 45.5t-54.5 136.5l1 194h-94v156h95l1 168h182l-1 -168h111v-156h-112z" />
    <glyph glyph-name="u" unicode="u" horiz-adv-x="609" 
d="M546 0h-172v36q-38 -47 -122 -47q-92 0 -143 50.5t-51 147.5v334h182v-289q0 -39 13.5 -56t46.5 -17q64 0 64 71v291h182v-521z" />
    <glyph glyph-name="v" unicode="v" horiz-adv-x="599" 
d="M372 0h-145l-226 521h203l96 -261l96 261h202z" />
    <glyph glyph-name="w" unicode="w" horiz-adv-x="862" 
d="M660 0h-145l-83 218l-84 -218h-146l-201 521h203l77 -258l86 258h128l86 -258l77 258h203z" />
    <glyph glyph-name="x" unicode="x" horiz-adv-x="577" 
d="M412 261l155 -261h-203l-77 136l-74 -136h-204l155 260l-155 261h202l76 -138l79 138h201z" />
    <glyph glyph-name="y" unicode="y" horiz-adv-x="599" 
d="M262 -255h-199l139 312l-201 464h202l97 -260l96 260h202z" />
    <glyph glyph-name="z" unicode="z" horiz-adv-x="459" 
d="M420 401l-174 -254h179v-147h-391v120l176 254h-172v147h382v-120z" />
    <glyph glyph-name="braceleft" unicode="{" horiz-adv-x="334" 
d="M315 567h-6q-42 0 -54 -22t-5 -88q9 -62 -7 -97t-72 -39q56 -4 72 -39.5t7 -97.5q-7 -66 5 -88t54 -22h6v-151h-6q-126 0 -194.5 62t-43.5 181q13 50 5.5 65t-53.5 15h-8v149h8q46 0 53.5 15t-5.5 65q-25 119 43.5 181t194.5 62h6v-151z" />
    <glyph glyph-name="bar" unicode="|" 
d="M246 -67h-183v815h183v-815z" />
    <glyph glyph-name="braceright" unicode="}" horiz-adv-x="334" 
d="M20 718h6q126 0 194.5 -62t42.5 -181q-13 -50 -5 -65t54 -15h8v-149h-8q-46 0 -54 -15t5 -65q26 -119 -42.5 -181t-194.5 -62h-6v151h6q42 0 53.5 22t4.5 88q-8 63 8 98t72 39q-56 4 -72 38.5t-8 97.5q7 66 -4.5 88t-53.5 22h-6v151z" />
    <glyph glyph-name="asciitilde" unicode="~" horiz-adv-x="549" 
d="M464 478l81 -121q-72 -98 -167 -98q-40 0 -97.5 27t-90.5 27q-65 0 -105 -49l-81 121q72 98 167 98q41 0 99 -27t89 -27q65 0 105 49z" />
    <glyph glyph-name="exclamdown" unicode="&#xa1;" horiz-adv-x="350" 
d="M176 299q-44 0 -75.5 31.5t-31.5 75.5t31.5 74.5t75.5 30.5t74.5 -30.5t30.5 -74.5t-30.5 -75.5t-74.5 -31.5zM79 256h192l11 -504h-214z" />
    <glyph glyph-name="cent" unicode="&#xa2;" horiz-adv-x="601" 
d="M313 145q31 0 51 17.5t24 47.5l178 -15q-12 -77 -61.5 -129t-122.5 -69v-115h-151v117q-88 22 -140 90.5t-52 170.5q0 103 52 171.5t140 90.5v105h151v-103q73 -17 122.5 -68.5t62.5 -128.5l-179 -16q-4 30 -24 47.5t-51 17.5q-41 0 -65.5 -31t-24.5 -85t24.5 -84.5
t65.5 -30.5z" />
    <glyph glyph-name="sterling" unicode="&#xa3;" horiz-adv-x="577" 
d="M560 171v-171h-536v157q56 6 74.5 37t14.5 98h-86v151h72l-4 37q-14 133 45 206t184 73q108 0 167.5 -57t63.5 -162l-192 -10q-2 58 -43 58q-52 0 -46 -74l8 -71h135v-151h-120q3 -75 -40 -121h303z" />
    <glyph glyph-name="currency" unicode="&#xa4;" horiz-adv-x="610" 
d="M499 252q0 -42 -12 -78l108 -108l-114 -115l-110 110q-30 -9 -66 -9q-32 0 -65 10l-111 -111l-115 115l110 110q-13 37 -13 76q0 38 13 77l-110 111l115 114l111 -111q33 10 65 10t65 -10l111 111l114 -114l-110 -110q14 -37 14 -78zM259 252q0 -72 46 -72t46 72t-46 72
t-46 -72z" />
    <glyph glyph-name="yen" unicode="&#xa5;" horiz-adv-x="776" 
d="M535 358h79v-113h-129v-51h129v-112h-129v-82h-193v82h-129v112h129v51h-129v113h79l-234 390h224l156 -282l156 282h224z" />
    <glyph glyph-name="brokenbar" unicode="&#xa6;" 
d="M246 429h-183v319h183v-319zM246 -67h-183v319h183v-319z" />
    <glyph glyph-name="section" unicode="&#xa7;" horiz-adv-x="538" 
d="M448 266q57 -36 57 -116q0 -77 -63 -127.5t-172 -50.5q-116 0 -178.5 47t-61.5 127l182 7q0 -24 14 -40t45 -16q25 0 38.5 11.5t13.5 30.5q0 16 -15.5 27t-64.5 23q-48 10 -78 18t-61.5 20.5t-48 27.5t-27.5 37.5t-11 52.5q0 77 74 125q-55 36 -55 115q0 77 60.5 125.5
t165.5 48.5q110 0 169.5 -44.5t60.5 -120.5l-182 -7q0 47 -46 47t-46 -37q0 -16 15.5 -27.5t61.5 -23.5q50 -11 80 -18.5t61.5 -20.5t47.5 -28t26.5 -37.5t10.5 -52.5q0 -77 -73 -123zM185 370q0 -22 28.5 -35t100.5 -26q39 24 39 55q0 23 -27.5 35t-100.5 26
q-40 -24 -40 -55z" />
    <glyph glyph-name="dieresis" unicode="&#xa8;" horiz-adv-x="418" 
d="M99 773q40 0 68 -27.5t28 -67.5t-27.5 -68t-68.5 -28q-40 0 -67.5 28t-27.5 68t27.5 67.5t67.5 27.5zM318 773q41 0 69 -27.5t28 -67.5t-28 -68t-69 -28q-40 0 -67.5 28t-27.5 68t27.5 67.5t67.5 27.5z" />
    <glyph glyph-name="copyright" unicode="&#xa9;" horiz-adv-x="603" 
d="M302 762q119 0 197.5 -73.5t78.5 -183.5q0 -112 -78.5 -185.5t-197.5 -73.5q-121 0 -199 73.5t-78 185.5q0 111 78 184t199 73zM302 701q-93 0 -150 -54.5t-57 -141.5q0 -88 57 -142.5t150 -54.5q92 0 149 54.5t57 142.5q0 87 -57.5 141.5t-148.5 54.5zM303 663
q57 0 97.5 -31.5t50.5 -85.5l-104 -8q-7 38 -46 38q-25 0 -39.5 -18.5t-14.5 -50.5q0 -34 15.5 -52t38.5 -18q40 0 46 39l103 -7q-9 -55 -49.5 -87t-97.5 -32q-70 0 -114 42.5t-44 114.5t44 114t114 42z" />
    <glyph glyph-name="ordfeminine" unicode="&#xaa;" horiz-adv-x="466" 
d="M229 757q195 0 195 -171v-257h-154v21q-36 -30 -99 -30q-69 0 -107.5 32t-38.5 93q0 35 15 60t43.5 38.5t59 20.5t71.5 9l47 3v22q0 15 -8.5 24.5t-22.5 9.5q-36 0 -36 -37l-159 5q0 60 54 108.5t140 48.5zM261 485l-34 -2q-38 -3 -38 -28q0 -22 29 -22q18 0 30.5 9.5
t12.5 23.5v19z" />
    <glyph glyph-name="guillemotleft" unicode="&#xab;" horiz-adv-x="612" 
d="M314 416l-97 -156l97 -155l-146 -89l-153 244l153 245zM598 416l-97 -156l97 -155l-146 -89l-153 244l153 245z" />
    <glyph glyph-name="logicalnot" unicode="&#xac;" horiz-adv-x="631" 
d="M597 136h-142v195h-426v141h568v-336z" />
    <glyph glyph-name="registered" unicode="&#xae;" horiz-adv-x="603" 
d="M302 762q119 0 197.5 -73.5t78.5 -183.5q0 -112 -78.5 -185.5t-197.5 -73.5q-121 0 -199 73.5t-78 185.5q0 111 78 184t199 73zM390 469l51 -115q67 56 67 151q0 87 -57.5 141.5t-148.5 54.5q-93 0 -150 -54.5t-57 -141.5q0 -88 57 -142.5t150 -54.5q82 0 138 45h-107
l-42 97h-15v-97h-99v306h150q47 0 74.5 -28t27.5 -76q0 -59 -39 -86zM276 529h24q28 0 28 25t-28 25h-24v-50z" />
    <glyph glyph-name="macron" unicode="&#xaf;" horiz-adv-x="331" 
d="M327 609h-323v140h323v-140z" />
    <glyph glyph-name="degree" unicode="&#xb0;" horiz-adv-x="395" 
d="M197 758q77 0 125 -41.5t48 -114.5v-22q0 -73 -48 -114.5t-125 -41.5t-124.5 41.5t-47.5 114.5v22q0 73 47.5 114.5t124.5 41.5zM197 648q-23 0 -36 -13.5t-13 -38.5v-10q0 -25 13 -38.5t36 -13.5q22 0 35.5 14t13.5 38v10q0 24 -13.5 38t-35.5 14z" />
    <glyph glyph-name="plusminus" unicode="&#xb1;" horiz-adv-x="548" 
d="M363 571h155v-165h-155v-162h-177v162h-156v165h156v162h177v-162zM518 29h-488v171h488v-171z" />
    <glyph glyph-name="acute" unicode="&#xb4;" horiz-adv-x="287" 
d="M146 600h-142l73 191h206z" />
    <glyph glyph-name="paragraph" unicode="&#xb6;" horiz-adv-x="737" 
d="M723 614h-70v-681h-141v681h-75v-681h-140v429h-51q-100 0 -158.5 49.5t-58.5 143.5t58.5 143.5t158.5 49.5h477v-134z" />
    <glyph glyph-name="periodcentered" unicode="&#xb7;" horiz-adv-x="301" 
d="M140 447q44 0 75 -31t31 -75q0 -45 -31 -75.5t-75 -30.5t-75 30.5t-31 75.5q0 44 31 75t75 31z" />
    <glyph glyph-name="cedilla" unicode="&#xb8;" horiz-adv-x="274" 
d="M162 14l-15 -55q46 -2 81.5 -31.5t35.5 -79.5q0 -51 -43 -77.5t-103 -26.5q-65 0 -103 19l27 86q20 -10 44 -10q42 0 42 29q0 15 -12 23.5t-29 8.5q-24 0 -38 -7l42 121h71z" />
    <glyph glyph-name="ordmasculine" unicode="&#xba;" horiz-adv-x="517" 
d="M258 757q102 0 166 -60.5t64 -157.5q0 -98 -64 -158.5t-166 -60.5q-101 0 -165 60.5t-64 158.5q0 97 64 157.5t165 60.5zM258 619q-31 0 -47.5 -21t-16.5 -59t16.5 -59t47.5 -21t48.5 21t17.5 59t-17.5 59t-48.5 21z" />
    <glyph glyph-name="guillemotright" unicode="&#xbb;" horiz-adv-x="612" 
d="M314 260l-154 -244l-145 89l97 155l-97 156l145 89zM597 260l-153 -244l-146 89l97 155l-97 156l146 89z" />
    <glyph glyph-name="onequarter" unicode="&#xbc;" horiz-adv-x="761" 
d="M225 0h-185l494 748h185zM218 322h-139v229l-32 -17l-59 113l143 86h87v-411zM713 169h33v-123h-33v-46h-139v46h-155v108l160 257h134v-242zM539 169h35v56z" />
    <glyph glyph-name="onehalf" unicode="&#xbd;" horiz-adv-x="812" 
d="M225 0h-185l494 748h185zM218 322h-139v229l-32 -17l-59 113l143 86h87v-411zM645 418q73 0 110.5 -38t37.5 -100t-57 -128l-23 -28h79v-124h-288v96l131 142q18 21 18 44q0 12 -5 12q-8 0 -8 -17l-136 8q1 62 39.5 97.5t101.5 35.5z" />
    <glyph glyph-name="threequarters" unicode="&#xbe;" horiz-adv-x="832" 
d="M297 0h-185l494 748h185zM163 739q70 0 106.5 -34t36.5 -96q0 -45 -33 -76q35 -26 35 -83q0 -64 -40.5 -100t-105.5 -36q-71 0 -109 36t-37 97l141 9q-3 -18 4 -18q8 0 8 17q0 20 -13 20h-46v108h44q7 0 12 4.5t5 12.5q0 15 -8 15q-7 0 -6 -15l-136 8q-1 62 35.5 96.5
t106.5 34.5zM785 169h33v-123h-33v-46h-139v46h-155v108l160 257h134v-242zM611 169h35v56z" />
    <glyph glyph-name="questiondown" unicode="&#xbf;" horiz-adv-x="555" 
d="M274 320q-44 0 -75 31t-31 75t31 75t75 31t75 -31t31 -75t-31 -75t-75 -31zM277 -240q-121 0 -191.5 62t-70.5 172q0 38 16 70.5t32.5 49t45.5 40.5q2 2 12.5 10.5l13.5 11t11 10t11 11l8.5 10t7 11.5l3.5 11.5t2 13.5v34h192v-41q0 -29 -17.5 -59t-30.5 -42.5l-47 -43.5
q-23 -21 -33 -31.5t-20.5 -28.5t-10.5 -34q0 -33 18 -50t48 -17q31 0 50.5 22t20.5 60l192 -11q-1 -109 -74 -175t-189 -66z" />
    <glyph glyph-name="Agrave" unicode="&#xc0;" horiz-adv-x="823" 
d="M486 795h-164l-199 162h248zM819 0h-212l-52 119h-287l-52 -119h-212l326 748h163zM333 267h157l-79 182z" />
    <glyph glyph-name="Aacute" unicode="&#xc1;" horiz-adv-x="823" 
d="M492 795h-164l116 162h247zM819 0h-212l-52 119h-287l-52 -119h-212l326 748h163zM333 267h157l-79 182z" />
    <glyph glyph-name="Acircumflex" unicode="&#xc2;" horiz-adv-x="823" 
d="M614 795h-151l-52 66l-51 -66h-152l115 170h177zM819 0h-212l-52 119h-287l-52 -119h-212l326 748h163zM333 267h157l-79 182z" />
    <glyph glyph-name="Atilde" unicode="&#xc3;" horiz-adv-x="823" 
d="M335 974q35 0 74.5 -24.5t56.5 -24.5q37 0 37 42h102q7 -72 -26 -125.5t-92 -53.5q-37 0 -76 25t-55 25q-37 0 -37 -43h-102q-7 73 25.5 126t92.5 53zM819 0h-212l-52 119h-287l-52 -119h-212l326 748h163zM333 267h157l-79 182z" />
    <glyph glyph-name="Adieresis" unicode="&#xc4;" horiz-adv-x="823" 
d="M301 980q40 0 68 -28t28 -68t-27.5 -67.5t-68.5 -27.5q-40 0 -67.5 27.5t-27.5 67.5t27.5 68t67.5 28zM520 980q40 0 68.5 -28t28.5 -68t-28 -67.5t-69 -27.5q-40 0 -67.5 27.5t-27.5 67.5t27.5 68t67.5 28zM819 0h-212l-52 119h-287l-52 -119h-212l326 748h163zM333 267
h157l-79 182z" />
    <glyph glyph-name="Aring" unicode="&#xc5;" horiz-adv-x="823" 
d="M411 1019q51 0 86 -32t35 -81t-35 -81t-86 -32q-52 0 -87 32t-35 81q0 50 35 81.5t87 31.5zM411 941q-16 0 -25.5 -10t-9.5 -25t9.5 -24.5t25.5 -9.5q15 0 24.5 9.5t9.5 24.5t-9.5 25t-24.5 10zM819 0h-212l-52 119h-287l-52 -119h-212l326 748h163zM333 267h157l-79 182
z" />
    <glyph glyph-name="AE" unicode="&#xc6;" horiz-adv-x="1073" 
d="M1022 171v-171h-491v119h-211l-82 -119h-235l507 748h511v-171h-297v-112h254v-167h-254v-127h298zM531 267v171l-113 -171h113z" />
    <glyph glyph-name="Ccedilla" unicode="&#xc7;" horiz-adv-x="837" 
d="M426 160q66 0 110.5 35t57.5 102l202 -17q-21 -128 -115 -206.5t-227 -84.5l-10 -35q46 -2 81.5 -31.5t35.5 -79.5q0 -51 -43 -77.5t-103 -26.5q-65 0 -103 19l27 86q20 -10 44 -10q42 0 42 29q0 15 -12 23.5t-29 8.5q-24 0 -38 -7l36 104q-152 15 -245 117t-93 265
q0 177 108.5 281t280.5 104q140 0 241 -78t122 -211l-202 -19q-31 137 -168 137q-85 0 -135 -58.5t-50 -155.5q0 -103 51.5 -158.5t133.5 -55.5z" />
    <glyph glyph-name="Egrave" unicode="&#xc8;" horiz-adv-x="608" 
d="M390 795h-164l-199 162h248zM556 577h-297v-112h254v-167h-254v-127h298v-171h-491v748h490v-171z" />
    <glyph glyph-name="Eacute" unicode="&#xc9;" horiz-adv-x="608" 
d="M396 795h-164l116 162h247zM556 577h-297v-112h254v-167h-254v-127h298v-171h-491v748h490v-171z" />
    <glyph glyph-name="Ecircumflex" unicode="&#xca;" horiz-adv-x="608" 
d="M518 795h-151l-52 66l-51 -66h-152l115 170h177zM556 577h-297v-112h254v-167h-254v-127h298v-171h-491v748h490v-171z" />
    <glyph glyph-name="Edieresis" unicode="&#xcb;" horiz-adv-x="608" 
d="M205 980q40 0 68 -28t28 -68t-27.5 -67.5t-68.5 -27.5q-40 0 -67.5 27.5t-27.5 67.5t27.5 68t67.5 28zM424 980q40 0 68.5 -28t28.5 -68t-28 -67.5t-69 -27.5q-40 0 -67.5 27.5t-27.5 67.5t27.5 68t67.5 28zM556 577h-297v-112h254v-167h-254v-127h298v-171h-491v748h490
v-171z" />
    <glyph glyph-name="Igrave" unicode="&#xcc;" horiz-adv-x="325" 
d="M243 795h-164l-199 162h248zM259 0h-193v748h193v-748z" />
    <glyph glyph-name="Iacute" unicode="&#xcd;" horiz-adv-x="325" 
d="M249 795h-164l116 162h247zM259 0h-193v748h193v-748z" />
    <glyph glyph-name="Icircumflex" unicode="&#xce;" horiz-adv-x="325" 
d="M371 795h-151l-52 66l-51 -66h-152l115 170h177zM259 0h-193v748h193v-748z" />
    <glyph glyph-name="Idieresis" unicode="&#xcf;" horiz-adv-x="325" 
d="M58 980q40 0 68 -28t28 -68t-27.5 -67.5t-68.5 -27.5q-40 0 -67.5 27.5t-27.5 67.5t27.5 68t67.5 28zM277 980q40 0 68.5 -28t28.5 -68t-28 -67.5t-69 -27.5q-40 0 -67.5 27.5t-27.5 67.5t27.5 68t67.5 28zM259 0h-193v748h193v-748z" />
    <glyph glyph-name="Eth" unicode="&#xd0;" horiz-adv-x="812" 
d="M82 748h317q167 0 272.5 -101t105.5 -273t-105.5 -273t-272.5 -101h-317v300h-71v147h71v301zM275 166h126q88 0 136.5 52t48.5 156t-48.5 156t-136.5 52h-126v-135h84v-147h-84v-134z" />
    <glyph glyph-name="Ntilde" unicode="&#xd1;" horiz-adv-x="773" 
d="M300 974q35 0 74.5 -24.5t56.5 -24.5q37 0 37 42h102q7 -72 -26 -125.5t-92 -53.5q-37 0 -76.5 25t-54.5 25q-37 0 -37 -43h-102q-7 73 25.5 126t92.5 53zM707 0h-165l-283 392v-392h-193v748h164l284 -394v394h193v-748z" />
    <glyph glyph-name="Ograve" unicode="&#xd2;" horiz-adv-x="880" 
d="M516 795h-164l-199 162h248zM441 759q174 0 284.5 -105.5t110.5 -279.5t-110.5 -279.5t-284.5 -105.5q-176 0 -286.5 105.5t-110.5 279.5t110.5 279.5t286.5 105.5zM441 588q-92 0 -146 -57.5t-54 -156.5t54 -156.5t146 -57.5q91 0 144.5 57.5t53.5 156.5t-53.5 156.5
t-144.5 57.5z" />
    <glyph glyph-name="Oacute" unicode="&#xd3;" horiz-adv-x="880" 
d="M522 795h-164l116 162h247zM441 759q174 0 284.5 -105.5t110.5 -279.5t-110.5 -279.5t-284.5 -105.5q-176 0 -286.5 105.5t-110.5 279.5t110.5 279.5t286.5 105.5zM441 588q-92 0 -146 -57.5t-54 -156.5t54 -156.5t146 -57.5q91 0 144.5 57.5t53.5 156.5t-53.5 156.5
t-144.5 57.5z" />
    <glyph glyph-name="Ocircumflex" unicode="&#xd4;" horiz-adv-x="880" 
d="M644 795h-151l-52 66l-51 -66h-152l115 170h177zM441 759q174 0 284.5 -105.5t110.5 -279.5t-110.5 -279.5t-284.5 -105.5q-176 0 -286.5 105.5t-110.5 279.5t110.5 279.5t286.5 105.5zM441 588q-92 0 -146 -57.5t-54 -156.5t54 -156.5t146 -57.5q91 0 144.5 57.5
t53.5 156.5t-53.5 156.5t-144.5 57.5z" />
    <glyph glyph-name="Otilde" unicode="&#xd5;" horiz-adv-x="880" 
d="M365 974q35 0 74.5 -24.5t56.5 -24.5q37 0 37 42h102q7 -72 -26 -125.5t-92 -53.5q-37 0 -76 25t-55 25q-37 0 -37 -43h-102q-7 73 25.5 126t92.5 53zM441 759q174 0 284.5 -105.5t110.5 -279.5t-110.5 -279.5t-284.5 -105.5q-176 0 -286.5 105.5t-110.5 279.5
t110.5 279.5t286.5 105.5zM441 588q-92 0 -146 -57.5t-54 -156.5t54 -156.5t146 -57.5q91 0 144.5 57.5t53.5 156.5t-53.5 156.5t-144.5 57.5z" />
    <glyph glyph-name="Odieresis" unicode="&#xd6;" horiz-adv-x="880" 
d="M332 980q40 0 68 -28t28 -68t-27.5 -67.5t-68.5 -27.5q-40 0 -67.5 27.5t-27.5 67.5t27.5 68t67.5 28zM551 980q40 0 68.5 -28t28.5 -68t-28 -67.5t-69 -27.5q-40 0 -67.5 27.5t-27.5 67.5t27.5 68t67.5 28zM441 759q174 0 284.5 -105.5t110.5 -279.5t-110.5 -279.5
t-284.5 -105.5q-176 0 -286.5 105.5t-110.5 279.5t110.5 279.5t286.5 105.5zM441 588q-92 0 -146 -57.5t-54 -156.5t54 -156.5t146 -57.5q91 0 144.5 57.5t53.5 156.5t-53.5 156.5t-144.5 57.5z" />
    <glyph glyph-name="multiply" unicode="&#xd7;" horiz-adv-x="565" 
d="M526 494l-123 -123l123 -123l-121 -120l-122 122l-123 -122l-121 121l123 122l-123 123l121 121l123 -123l122 123z" />
    <glyph glyph-name="Oslash" unicode="&#xd8;" horiz-adv-x="882" 
d="M797 719l-59 -78q98 -104 98 -267q0 -174 -110.5 -279.5t-284.5 -105.5q-97 0 -177 34l-62 -81l-118 90l58 75q-98 106 -98 267q0 174 110.5 279.5t286.5 105.5q95 0 175 -34l63 83zM241 374q0 -60 22 -109l241 315q-30 8 -63 8q-92 0 -146 -57.5t-54 -156.5zM441 160
q91 0 144.5 57.5t53.5 156.5q0 65 -22 110l-241 -315q30 -9 65 -9z" />
    <glyph glyph-name="Ugrave" unicode="&#xd9;" horiz-adv-x="785" 
d="M468 795h-164l-199 162h248zM723 748v-430q0 -155 -87.5 -242t-242.5 -87q-156 0 -244 87t-88 242v430h193v-427q0 -161 139 -161q138 0 138 161v427h192z" />
    <glyph glyph-name="Uacute" unicode="&#xda;" horiz-adv-x="785" 
d="M474 795h-164l116 162h247zM723 748v-430q0 -155 -87.5 -242t-242.5 -87q-156 0 -244 87t-88 242v430h193v-427q0 -161 139 -161q138 0 138 161v427h192z" />
    <glyph glyph-name="Ucircumflex" unicode="&#xdb;" horiz-adv-x="785" 
d="M596 795h-151l-52 66l-51 -66h-152l115 170h177zM723 748v-430q0 -155 -87.5 -242t-242.5 -87q-156 0 -244 87t-88 242v430h193v-427q0 -161 139 -161q138 0 138 161v427h192z" />
    <glyph glyph-name="Udieresis" unicode="&#xdc;" horiz-adv-x="785" 
d="M283 980q40 0 68 -28t28 -68t-27.5 -67.5t-68.5 -27.5q-40 0 -67.5 27.5t-27.5 67.5t27.5 68t67.5 28zM502 980q40 0 68.5 -28t28.5 -68t-28 -67.5t-69 -27.5q-40 0 -67.5 27.5t-27.5 67.5t27.5 68t67.5 28zM723 748v-430q0 -155 -87.5 -242t-242.5 -87q-156 0 -244 87
t-88 242v430h193v-427q0 -161 139 -161q138 0 138 161v427h192z" />
    <glyph glyph-name="Yacute" unicode="&#xdd;" horiz-adv-x="776" 
d="M469 795h-164l116 162h247zM485 274v-274h-193v274l-284 474h224l156 -282l156 282h224z" />
    <glyph glyph-name="Thorn" unicode="&#xde;" horiz-adv-x="669" 
d="M259 659h139q114 0 182 -66.5t68 -183.5t-68 -183.5t-182 -66.5h-139v-159h-193v748h193v-89zM259 488v-158h115q36 0 56.5 21t20.5 58t-20.5 58t-56.5 21h-115z" />
    <glyph glyph-name="germandbls" unicode="&#xdf;" horiz-adv-x="674" 
d="M317 785q117 0 188.5 -51t71.5 -134q0 -35 -13.5 -61t-29 -37.5t-29 -30t-13.5 -40.5q0 -21 15 -40t36 -35t42.5 -35.5t36.5 -50.5t15 -70q0 -98 -69 -153t-175 -55q-59 0 -112 19l34 146q33 -13 60 -13q32 0 55 19.5t23 54.5q0 22 -15 42.5t-36.5 38l-42.5 35t-36 42
t-15 51.5q0 26 8.5 44.5t21 29t25 19.5t21 20.5t8.5 27.5q0 66 -72 66q-36 0 -55.5 -23t-19.5 -67v-544h-183v549q0 108 69.5 172t185.5 64z" />
    <glyph glyph-name="agrave" unicode="&#xe0;" horiz-adv-x="566" 
d="M359 600h-142l-137 191h206zM282 532q111 0 168.5 -53.5t57.5 -159.5v-319h-171v37q-44 -48 -126 -48q-81 0 -126.5 39.5t-45.5 114.5q0 151 228 161l59 2v27q0 49 -41 49q-24 0 -37 -14.5t-13 -31.5l-182 6q0 74 64.5 132t164.5 58zM325 200l-46 -2q-58 -3 -58 -40
q0 -36 41 -36q25 0 44 15t19 38v25z" />
    <glyph glyph-name="aacute" unicode="&#xe1;" horiz-adv-x="566" 
d="M362 600h-142l73 191h206zM282 532q111 0 168.5 -53.5t57.5 -159.5v-319h-171v37q-44 -48 -126 -48q-81 0 -126.5 39.5t-45.5 114.5q0 151 228 161l59 2v27q0 49 -41 49q-24 0 -37 -14.5t-13 -31.5l-182 6q0 74 64.5 132t164.5 58zM325 200l-46 -2q-58 -3 -58 -40
q0 -36 41 -36q25 0 44 15t19 38v25z" />
    <glyph glyph-name="acircumflex" unicode="&#xe2;" horiz-adv-x="566" 
d="M496 600h-151l-52 65l-51 -65h-152l115 182h177zM282 532q111 0 168.5 -53.5t57.5 -159.5v-319h-171v37q-44 -48 -126 -48q-81 0 -126.5 39.5t-45.5 114.5q0 151 228 161l59 2v27q0 49 -41 49q-24 0 -37 -14.5t-13 -31.5l-182 6q0 74 64.5 132t164.5 58zM325 200l-46 -2
q-58 -3 -58 -40q0 -36 41 -36q25 0 44 15t19 38v25z" />
    <glyph glyph-name="atilde" unicode="&#xe3;" horiz-adv-x="566" 
d="M217 776q35 0 74.5 -24.5t56.5 -24.5q37 0 37 42h102q7 -72 -26 -125t-92 -53q-37 0 -76 24.5t-55 24.5q-37 0 -37 -42h-102q-7 72 26 125t92 53zM282 532q111 0 168.5 -53.5t57.5 -159.5v-319h-171v37q-44 -48 -126 -48q-81 0 -126.5 39.5t-45.5 114.5q0 151 228 161
l59 2v27q0 49 -41 49q-24 0 -37 -14.5t-13 -31.5l-182 6q0 74 64.5 132t164.5 58zM325 200l-46 -2q-58 -3 -58 -40q0 -36 41 -36q25 0 44 15t19 38v25z" />
    <glyph glyph-name="adieresis" unicode="&#xe4;" horiz-adv-x="566" 
d="M183 773q40 0 68 -27.5t28 -67.5t-27.5 -68t-68.5 -28q-40 0 -67.5 28t-27.5 68t27.5 67.5t67.5 27.5zM402 773q41 0 69 -27.5t28 -67.5t-28 -68t-69 -28q-40 0 -67.5 28t-27.5 68t27.5 67.5t67.5 27.5zM282 532q111 0 168.5 -53.5t57.5 -159.5v-319h-171v37
q-44 -48 -126 -48q-81 0 -126.5 39.5t-45.5 114.5q0 151 228 161l59 2v27q0 49 -41 49q-24 0 -37 -14.5t-13 -31.5l-182 6q0 74 64.5 132t164.5 58zM325 200l-46 -2q-58 -3 -58 -40q0 -36 41 -36q25 0 44 15t19 38v25z" />
    <glyph glyph-name="aring" unicode="&#xe5;" horiz-adv-x="566" 
d="M294 838q59 0 100 -37.5t41 -93.5q0 -57 -41 -94.5t-100 -37.5q-60 0 -101 37.5t-41 94.5q0 56 41 93.5t101 37.5zM294 745q-18 0 -28.5 -10.5t-10.5 -27.5t10.5 -28t28.5 -11q17 0 27.5 11t10.5 28t-10.5 27.5t-27.5 10.5zM282 532q111 0 168.5 -53.5t57.5 -159.5v-319
h-171v37q-44 -48 -126 -48q-81 0 -126.5 39.5t-45.5 114.5q0 151 228 161l59 2v27q0 49 -41 49q-24 0 -37 -14.5t-13 -31.5l-182 6q0 74 64.5 132t164.5 58zM325 200l-46 -2q-58 -3 -58 -40q0 -36 41 -36q25 0 44 15t19 38v25z" />
    <glyph glyph-name="ae" unicode="&#xe6;" horiz-adv-x="891" 
d="M853 211h-332q0 -37 19 -59.5t58 -22.5q53 0 66 40l184 -9q-12 -78 -81.5 -124.5t-164.5 -46.5q-120 0 -194 68q-78 -68 -176 -68q-92 0 -142.5 40.5t-50.5 115.5q0 45 18.5 76.5t52.5 48t71.5 24.5t85.5 10l59 2v23q0 52 -43 52q-23 0 -35.5 -14t-12.5 -31l-182 6
q0 74 62 132t161 58t155 -49q69 49 167 49q115 0 185 -69t70 -193v-59zM596 398q-34 0 -53.5 -21.5t-21.5 -58.5h147q-3 80 -72 80zM325 200l-46 -2q-58 -3 -58 -41q0 -35 41 -35q26 0 44.5 15.5t18.5 37.5v25z" />
    <glyph glyph-name="ccedilla" unicode="&#xe7;" horiz-adv-x="601" 
d="M313 145q31 0 51 17.5t24 47.5l178 -15q-14 -91 -78 -145.5t-157 -59.5l-9 -35q46 -2 81.5 -31.5t35.5 -79.5q0 -51 -43 -77.5t-103 -26.5q-65 0 -103 19l27 86q20 -10 44 -10q42 0 42 29q0 15 -12 23.5t-29 8.5q-24 0 -38 -7l36 104q-100 15 -160.5 86t-60.5 181
q0 126 76.5 199t197.5 73q98 0 168 -55t86 -150l-179 -16q-4 30 -24 47.5t-51 17.5q-41 0 -65.5 -31t-24.5 -85t24.5 -84.5t65.5 -30.5z" />
    <glyph glyph-name="egrave" unicode="&#xe8;" horiz-adv-x="603" 
d="M229 600l-137 191h206l73 -191h-142zM564 211h-331q0 -82 76 -82q53 0 67 40l183 -9q-12 -78 -81.5 -124.5t-163.5 -46.5q-125 0 -200 73.5t-75 197.5t74.5 198t195.5 74q116 0 185.5 -69t69.5 -193v-59zM307 398q-33 0 -52.5 -21.5t-21.5 -58.5h147q-3 80 -73 80z" />
    <glyph glyph-name="eacute" unicode="&#xe9;" horiz-adv-x="603" 
d="M373 600h-142l73 191h206zM564 211h-331q0 -82 76 -82q53 0 67 40l183 -9q-12 -78 -81.5 -124.5t-163.5 -46.5q-125 0 -200 73.5t-75 197.5t74.5 198t195.5 74q116 0 185.5 -69t69.5 -193v-59zM307 398q-33 0 -52.5 -21.5t-21.5 -58.5h147q-3 80 -73 80z" />
    <glyph glyph-name="ecircumflex" unicode="&#xea;" horiz-adv-x="603" 
d="M254 600h-152l115 182h177l114 -182h-151l-52 65zM564 211h-331q0 -82 76 -82q53 0 67 40l183 -9q-12 -78 -81.5 -124.5t-163.5 -46.5q-125 0 -200 73.5t-75 197.5t74.5 198t195.5 74q116 0 185.5 -69t69.5 -193v-59zM307 398q-33 0 -52.5 -21.5t-21.5 -58.5h147
q-3 80 -73 80z" />
    <glyph glyph-name="edieresis" unicode="&#xeb;" horiz-adv-x="603" 
d="M195 582q-40 0 -67.5 28t-27.5 68t27.5 67.5t67.5 27.5t68 -27.5t28 -67.5t-27.5 -68t-68.5 -28zM414 582q-40 0 -67.5 28t-27.5 68t27.5 67.5t67.5 27.5q41 0 69 -27.5t28 -67.5t-28 -68t-69 -28zM564 211h-331q0 -82 76 -82q53 0 67 40l183 -9q-12 -78 -81.5 -124.5
t-163.5 -46.5q-125 0 -200 73.5t-75 197.5t74.5 198t195.5 74q116 0 185.5 -69t69.5 -193v-59zM307 398q-33 0 -52.5 -21.5t-21.5 -58.5h147q-3 80 -73 80z" />
    <glyph glyph-name="igrave" unicode="&#xec;" 
d="M224 600h-142l-137 191h206zM245 0h-182v521h182v-521z" />
    <glyph glyph-name="iacute" unicode="&#xed;" 
d="M226 600h-142l73 191h206zM245 0h-182v521h182v-521z" />
    <glyph glyph-name="icircumflex" unicode="&#xee;" 
d="M361 600h-151l-52 65l-51 -65h-152l115 182h177zM245 0h-182v521h182v-521z" />
    <glyph glyph-name="idieresis" unicode="&#xef;" 
d="M47 773q40 0 68 -27.5t28 -67.5t-27.5 -68t-68.5 -28q-40 0 -67.5 28t-27.5 68t27.5 67.5t67.5 27.5zM266 773q41 0 69 -27.5t28 -67.5t-28 -68t-69 -28q-40 0 -67.5 28t-27.5 68t27.5 67.5t67.5 27.5zM245 0h-182v521h182v-521z" />
    <glyph glyph-name="eth" unicode="&#xf0;" horiz-adv-x="610" 
d="M489 730l-56 -58q140 -131 140 -395q0 -137 -73 -212.5t-200 -75.5q-109 0 -185 67t-76 182q0 111 75.5 176t184.5 65q39 0 75 -9q-19 58 -47 92l-58 -61l-82 80l44 46q-45 15 -100 18v132q118 0 205 -41l69 72zM308 135q42 0 64.5 29.5t22.5 71.5q0 48 -22.5 75.5
t-64.5 27.5q-40 0 -65.5 -28t-25.5 -74q0 -47 25.5 -74.5t65.5 -27.5z" />
    <glyph glyph-name="ntilde" unicode="&#xf1;" horiz-adv-x="624" 
d="M249 776q35 0 74.5 -24.5t56.5 -24.5q37 0 37 42h102q7 -72 -26 -125t-92 -53q-37 0 -76 24.5t-55 24.5q-37 0 -37 -42h-102q-7 72 26 125t92 53zM363 532q93 0 148 -54t55 -153v-325h-182v281q0 81 -68 81q-33 0 -52 -21.5t-19 -60.5v-280h-182v521h172v-36
q38 47 128 47z" />
    <glyph glyph-name="ograve" unicode="&#xf2;" horiz-adv-x="643" 
d="M386 600h-142l-137 191h206zM321 532q125 0 204 -75.5t79 -196.5t-79 -196t-204 -75q-124 0 -203 75t-79 196t79 196.5t203 75.5zM321 376q-45 0 -71.5 -31t-26.5 -85t26.5 -84.5t71.5 -30.5q46 0 72.5 30.5t26.5 84.5t-26.5 85t-72.5 31z" />
    <glyph glyph-name="oacute" unicode="&#xf3;" horiz-adv-x="643" 
d="M389 600h-142l73 191h206zM321 532q125 0 204 -75.5t79 -196.5t-79 -196t-204 -75q-124 0 -203 75t-79 196t79 196.5t203 75.5zM321 376q-45 0 -71.5 -31t-26.5 -85t26.5 -84.5t71.5 -30.5q46 0 72.5 30.5t26.5 84.5t-26.5 85t-72.5 31z" />
    <glyph glyph-name="ocircumflex" unicode="&#xf4;" horiz-adv-x="643" 
d="M523 600h-151l-52 65l-51 -65h-152l115 182h177zM321 532q125 0 204 -75.5t79 -196.5t-79 -196t-204 -75q-124 0 -203 75t-79 196t79 196.5t203 75.5zM321 376q-45 0 -71.5 -31t-26.5 -85t26.5 -84.5t71.5 -30.5q46 0 72.5 30.5t26.5 84.5t-26.5 85t-72.5 31z" />
    <glyph glyph-name="otilde" unicode="&#xf5;" horiz-adv-x="643" 
d="M244 776q35 0 74.5 -24.5t56.5 -24.5q37 0 37 42h102q7 -72 -26 -125t-92 -53q-36 0 -76 24.5t-55 24.5q-37 0 -37 -42h-102q-7 72 26 125t92 53zM321 532q125 0 204 -75.5t79 -196.5t-79 -196t-204 -75q-124 0 -203 75t-79 196t79 196.5t203 75.5zM321 376
q-45 0 -71.5 -31t-26.5 -85t26.5 -84.5t71.5 -30.5q46 0 72.5 30.5t26.5 84.5t-26.5 85t-72.5 31z" />
    <glyph glyph-name="odieresis" unicode="&#xf6;" horiz-adv-x="643" 
d="M210 773q40 0 68 -27.5t28 -67.5t-28 -68t-68 -28t-67.5 28t-27.5 68t27.5 67.5t67.5 27.5zM429 773q41 0 69 -27.5t28 -67.5t-28 -68t-69 -28q-40 0 -67.5 28t-27.5 68t27.5 67.5t67.5 27.5zM321 532q125 0 204 -75.5t79 -196.5t-79 -196t-204 -75q-124 0 -203 75
t-79 196t79 196.5t203 75.5zM321 376q-45 0 -71.5 -31t-26.5 -85t26.5 -84.5t71.5 -30.5q46 0 72.5 30.5t26.5 84.5t-26.5 85t-72.5 31z" />
    <glyph glyph-name="divide" unicode="&#xf7;" horiz-adv-x="548" 
d="M274 738q44 0 75.5 -31t31.5 -75t-31.5 -75t-75.5 -31t-74.5 31t-30.5 75t30.5 75t74.5 31zM518 287h-488v171h488v-171zM274 218q44 0 75.5 -30.5t31.5 -74.5t-31.5 -75.5t-75.5 -31.5t-74.5 31.5t-30.5 75.5t30.5 74.5t74.5 30.5z" />
    <glyph glyph-name="oslash" unicode="&#xf8;" horiz-adv-x="643" 
d="M571 487l-33 -44q66 -72 66 -183q0 -121 -79 -196t-204 -75q-61 0 -110 18l-46 -61l-100 74l42 55q-68 74 -68 185q0 121 79 196.5t203 75.5q59 0 114 -19l36 48zM223 260q0 -9 2 -27l107 143h-11q-45 0 -71.5 -31t-26.5 -85zM314 145h7q46 0 72.5 30.5t26.5 84.5
q0 8 -2 24z" />
    <glyph glyph-name="ugrave" unicode="&#xf9;" horiz-adv-x="609" 
d="M370 600h-142l-137 191h206zM546 0h-172v36q-38 -47 -122 -47q-92 0 -143 50.5t-51 147.5v334h182v-289q0 -39 13.5 -56t46.5 -17q64 0 64 71v291h182v-521z" />
    <glyph glyph-name="uacute" unicode="&#xfa;" horiz-adv-x="609" 
d="M373 600h-142l73 191h206zM546 0h-172v36q-38 -47 -122 -47q-92 0 -143 50.5t-51 147.5v334h182v-289q0 -39 13.5 -56t46.5 -17q64 0 64 71v291h182v-521z" />
    <glyph glyph-name="ucircumflex" unicode="&#xfb;" horiz-adv-x="609" 
d="M507 600h-151l-52 65l-51 -65h-152l115 182h177zM546 0h-172v36q-38 -47 -122 -47q-92 0 -143 50.5t-51 147.5v334h182v-289q0 -39 13.5 -56t46.5 -17q64 0 64 71v291h182v-521z" />
    <glyph glyph-name="udieresis" unicode="&#xfc;" horiz-adv-x="609" 
d="M194 773q40 0 68 -27.5t28 -67.5t-28 -68t-68 -28t-67.5 28t-27.5 68t27.5 67.5t67.5 27.5zM413 773q41 0 69 -27.5t28 -67.5t-28 -68t-69 -28q-40 0 -67.5 28t-27.5 68t27.5 67.5t67.5 27.5zM546 0h-172v36q-38 -47 -122 -47q-92 0 -143 50.5t-51 147.5v334h182v-289
q0 -39 13.5 -56t46.5 -17q64 0 64 71v291h182v-521z" />
    <glyph glyph-name="yacute" unicode="&#xfd;" horiz-adv-x="599" 
d="M368 600h-142l73 191h206zM262 -255h-199l139 312l-201 464h202l97 -260l96 260h202z" />
    <glyph glyph-name="thorn" unicode="&#xfe;" horiz-adv-x="662" 
d="M245 777v-281q47 36 127 36q112 0 181.5 -75.5t69.5 -196.5q0 -120 -69.5 -195.5t-181.5 -75.5q-80 0 -127 36v-280h-182v1032h182zM341 376q-43 0 -69.5 -29.5t-26.5 -76.5v-19q0 -47 26.5 -76.5t69.5 -29.5q45 0 71.5 30.5t26.5 84.5q0 55 -26.5 85.5t-71.5 30.5z" />
    <glyph glyph-name="ydieresis" unicode="&#xff;" horiz-adv-x="599" 
d="M189 773q40 0 68 -27.5t28 -67.5t-27.5 -68t-68.5 -28q-40 0 -67.5 28t-27.5 68t27.5 67.5t67.5 27.5zM408 773q41 0 69 -27.5t28 -67.5t-28 -68t-69 -28q-40 0 -67.5 28t-27.5 68t27.5 67.5t67.5 27.5zM262 -255h-199l139 312l-201 464h202l97 -260l96 260h202z" />
    <glyph glyph-name="Amacron" unicode="&#x100;" horiz-adv-x="823" 
d="M573 803h-323v139h323v-139zM819 0h-212l-52 119h-287l-52 -119h-212l326 748h163zM333 267h157l-79 182z" />
    <glyph glyph-name="amacron" unicode="&#x101;" horiz-adv-x="566" 
d="M455 609h-323v140h323v-140zM282 532q111 0 168.5 -53.5t57.5 -159.5v-319h-171v37q-44 -48 -126 -48q-81 0 -126.5 39.5t-45.5 114.5q0 151 228 161l59 2v27q0 49 -41 49q-24 0 -37 -14.5t-13 -31.5l-182 6q0 74 64.5 132t164.5 58zM325 200l-46 -2q-58 -3 -58 -40
q0 -36 41 -36q25 0 44 15t19 38v25z" />
    <glyph glyph-name="Abreve" unicode="&#x102;" horiz-adv-x="823" 
d="M467 976h148q0 -91 -56 -138t-148 -47t-147.5 47t-55.5 138h148q0 -28 15 -44t40 -16q26 0 41 16t15 44zM819 0h-212l-52 119h-287l-52 -119h-212l326 748h163zM333 267h157l-79 182z" />
    <glyph glyph-name="abreve" unicode="&#x103;" horiz-adv-x="566" 
d="M349 774h148q0 -91 -56 -138t-148 -47t-147.5 47t-55.5 138h148q0 -28 15 -44t40 -16q26 0 41 16t15 44zM282 532q111 0 168.5 -53.5t57.5 -159.5v-319h-171v37q-44 -48 -126 -48q-81 0 -126.5 39.5t-45.5 114.5q0 151 228 161l59 2v27q0 49 -41 49q-24 0 -37 -14.5
t-13 -31.5l-182 6q0 74 64.5 132t164.5 58zM325 200l-46 -2q-58 -3 -58 -40q0 -36 41 -36q25 0 44 15t19 38v25z" />
    <glyph glyph-name="Aogonek" unicode="&#x104;" horiz-adv-x="823" 
d="M667 -99q23 0 45 11l16 -87q-43 -19 -93 -19q-60 0 -98 25.5t-38 76.5q0 73 100 111l-44 100h-287l-52 -119h-212l326 748h163l326 -748h-124q-32 -19 -46 -34t-14 -36q0 -29 32 -29zM490 267l-79 182l-78 -182h157z" />
    <glyph glyph-name="aogonek" unicode="&#x105;" horiz-adv-x="566" 
d="M508 0h-36q-31 -19 -45 -34t-14 -35q0 -29 32 -29q23 0 45 11l16 -87q-43 -19 -93 -19q-60 0 -98 25.5t-38 76.5q0 56 60 92v36q-44 -48 -126 -48q-81 0 -126.5 39.5t-45.5 114.5q0 151 228 161l59 2v27q0 49 -41 49q-24 0 -37 -14.5t-13 -31.5l-182 6q0 74 64.5 132
t164.5 58q111 0 168.5 -53.5t57.5 -159.5v-319zM325 200l-46 -2q-58 -3 -58 -40q0 -36 41 -36q25 0 44 15t19 38v25z" />
    <glyph glyph-name="Cacute" unicode="&#x106;" horiz-adv-x="837" 
d="M506 795h-164l116 162h247zM433 759q140 0 241 -78t122 -211l-202 -19q-31 137 -168 137q-85 0 -135 -58.5t-50 -155.5q0 -103 51.5 -158.5t133.5 -55.5q66 0 110.5 35t57.5 102l202 -17q-21 -134 -122 -212.5t-241 -78.5q-172 0 -280.5 104t-108.5 281t108.5 281
t280.5 104z" />
    <glyph glyph-name="cacute" unicode="&#x107;" horiz-adv-x="601" 
d="M374 600h-142l73 191h206zM313 532q98 0 168 -55t86 -150l-179 -16q-4 30 -24 47.5t-51 17.5q-41 0 -65.5 -31t-24.5 -85t24.5 -84.5t65.5 -30.5q31 0 51 17.5t24 47.5l178 -15q-15 -95 -85 -150.5t-168 -55.5q-121 0 -197.5 73t-76.5 198q0 126 76.5 199t197.5 73z" />
    <glyph glyph-name="Ccircumflex" unicode="&#x108;" horiz-adv-x="837" 
d="M628 795h-151l-52 66l-51 -66h-152l115 170h177zM433 759q140 0 241 -78t122 -211l-202 -19q-31 137 -168 137q-85 0 -135 -58.5t-50 -155.5q0 -103 51.5 -158.5t133.5 -55.5q66 0 110.5 35t57.5 102l202 -17q-21 -134 -122 -212.5t-241 -78.5q-172 0 -280.5 104
t-108.5 281t108.5 281t280.5 104z" />
    <glyph glyph-name="ccircumflex" unicode="&#x109;" horiz-adv-x="601" 
d="M508 600h-151l-52 65l-51 -65h-152l115 182h177zM313 532q98 0 168 -55t86 -150l-179 -16q-4 30 -24 47.5t-51 17.5q-41 0 -65.5 -31t-24.5 -85t24.5 -84.5t65.5 -30.5q31 0 51 17.5t24 47.5l178 -15q-15 -95 -85 -150.5t-168 -55.5q-121 0 -197.5 73t-76.5 198
q0 126 76.5 199t197.5 73z" />
    <glyph glyph-name="Cdotaccent" unicode="&#x10a;" horiz-adv-x="837" 
d="M424 1003q45 0 76 -31.5t31 -75.5t-31 -74.5t-76 -30.5q-44 0 -74.5 30.5t-30.5 74.5t31 75.5t74 31.5zM433 759q140 0 241 -78t122 -211l-202 -19q-31 137 -168 137q-85 0 -135 -58.5t-50 -155.5q0 -103 51.5 -158.5t133.5 -55.5q66 0 110.5 35t57.5 102l202 -17
q-21 -134 -122 -212.5t-241 -78.5q-172 0 -280.5 104t-108.5 281t108.5 281t280.5 104z" />
    <glyph glyph-name="cdotaccent" unicode="&#x10b;" horiz-adv-x="601" 
d="M305 789q45 0 76 -31.5t31 -75.5t-31 -74.5t-76 -30.5q-44 0 -74.5 30.5t-30.5 74.5t31 75.5t74 31.5zM313 532q98 0 168 -55t86 -150l-179 -16q-4 30 -24 47.5t-51 17.5q-41 0 -65.5 -31t-24.5 -85t24.5 -84.5t65.5 -30.5q31 0 51 17.5t24 47.5l178 -15
q-15 -95 -85 -150.5t-168 -55.5q-121 0 -197.5 73t-76.5 198q0 126 76.5 199t197.5 73z" />
    <glyph glyph-name="Ccaron" unicode="&#x10c;" horiz-adv-x="837" 
d="M514 795h-177l-115 170h152l51 -66l52 66h151zM433 759q140 0 241 -78t122 -211l-202 -19q-31 137 -168 137q-85 0 -135 -58.5t-50 -155.5q0 -103 51.5 -158.5t133.5 -55.5q66 0 110.5 35t57.5 102l202 -17q-21 -134 -122 -212.5t-241 -78.5q-172 0 -280.5 104
t-108.5 281t108.5 281t280.5 104z" />
    <glyph glyph-name="ccaron" unicode="&#x10d;" horiz-adv-x="601" 
d="M394 598h-177l-115 182h152l51 -64l52 64h151zM313 532q98 0 168 -55t86 -150l-179 -16q-4 30 -24 47.5t-51 17.5q-41 0 -65.5 -31t-24.5 -85t24.5 -84.5t65.5 -30.5q31 0 51 17.5t24 47.5l178 -15q-15 -95 -85 -150.5t-168 -55.5q-121 0 -197.5 73t-76.5 198
q0 126 76.5 199t197.5 73z" />
    <glyph glyph-name="Dcaron" unicode="&#x10e;" horiz-adv-x="805" 
d="M435 795h-177l-115 170h152l51 -66l52 66h151zM66 748h317q167 0 272.5 -101t105.5 -273t-105.5 -273t-272.5 -101h-317v748zM259 582v-416h126q88 0 136.5 52t48.5 156t-48.5 156t-136.5 52h-126z" />
    <glyph glyph-name="dcaron" unicode="&#x10f;" horiz-adv-x="853" 
d="M836 674v-1q-2 -164 -177 -252v75q52 32 70 84q-41 4 -68 33.5t-27 71.5q0 44 29.5 75t74.5 31q46 0 72 -32.5t26 -84.5zM417 777h182v-777h-172v34q-51 -45 -137 -45q-112 0 -181.5 75.5t-69.5 195.5q0 121 69.5 196.5t181.5 75.5q80 0 127 -36v281zM417 251v19
q0 47 -26.5 76.5t-69.5 29.5q-45 0 -71.5 -30.5t-26.5 -85.5q0 -54 26.5 -84.5t71.5 -30.5q43 0 69.5 29.5t26.5 76.5z" />
    <glyph glyph-name="Dcroat" unicode="&#x110;" horiz-adv-x="812" 
d="M82 748h317q167 0 272.5 -101t105.5 -273t-105.5 -273t-272.5 -101h-317v300h-71v147h71v301zM275 166h126q88 0 136 52t48 156t-48 156t-136 52h-126v-135h84v-147h-84v-134z" />
    <glyph glyph-name="dcroat" unicode="&#x111;" horiz-adv-x="663" 
d="M663 586h-64v-586h-172v34q-51 -45 -137 -45q-112 0 -181.5 75.5t-69.5 195.5q0 121 69.5 196.5t181.5 75.5q80 0 127 -36v90h-77v140h77v51h182v-51h64v-140zM417 251v19q0 47 -26.5 76.5t-69.5 29.5q-45 0 -71.5 -30.5t-26.5 -85.5q0 -54 26.5 -84.5t71.5 -30.5
q43 0 69.5 29.5t26.5 76.5z" />
    <glyph glyph-name="Emacron" unicode="&#x112;" horiz-adv-x="608" 
d="M477 803h-323v139h323v-139zM556 577h-297v-112h254v-167h-254v-127h298v-171h-491v748h490v-171z" />
    <glyph glyph-name="emacron" unicode="&#x113;" horiz-adv-x="603" 
d="M467 609h-323v140h323v-140zM564 211h-331q0 -82 76 -82q53 0 67 40l183 -9q-12 -78 -81.5 -124.5t-163.5 -46.5q-125 0 -200 73.5t-75 197.5t74.5 198t195.5 74q116 0 185.5 -69t69.5 -193v-59zM307 398q-33 0 -52.5 -21.5t-21.5 -58.5h147q-3 80 -73 80z" />
    <glyph glyph-name="Ebreve" unicode="&#x114;" horiz-adv-x="608" 
d="M371 976h148q0 -91 -56 -138t-148 -47t-147.5 47t-55.5 138h148q0 -28 15 -44t40 -16q26 0 41 16t15 44zM556 577h-297v-112h254v-167h-254v-127h298v-171h-491v748h490v-171z" />
    <glyph glyph-name="ebreve" unicode="&#x115;" horiz-adv-x="603" 
d="M305 589q-92 0 -147.5 47t-55.5 138h148q0 -28 15 -44t40 -16q26 0 41 16t15 44h148q0 -91 -56 -138t-148 -47zM564 211h-331q0 -82 76 -82q53 0 67 40l183 -9q-12 -78 -81.5 -124.5t-163.5 -46.5q-125 0 -200 73.5t-75 197.5t74.5 198t195.5 74q116 0 185.5 -69
t69.5 -193v-59zM307 398q-33 0 -52.5 -21.5t-21.5 -58.5h147q-3 80 -73 80z" />
    <glyph glyph-name="Edotaccent" unicode="&#x116;" horiz-adv-x="608" 
d="M315 1003q45 0 76 -31.5t31 -75.5t-31 -74.5t-76 -30.5q-44 0 -74.5 30.5t-30.5 74.5t31 75.5t74 31.5zM556 577h-297v-112h254v-167h-254v-127h298v-171h-491v748h490v-171z" />
    <glyph glyph-name="edotaccent" unicode="&#x117;" horiz-adv-x="603" 
d="M305 577q-44 0 -74.5 30.5t-30.5 74.5t31 75.5t74 31.5q45 0 76 -31.5t31 -75.5t-31 -74.5t-76 -30.5zM564 211h-331q0 -82 76 -82q53 0 67 40l183 -9q-12 -78 -81.5 -124.5t-163.5 -46.5q-125 0 -200 73.5t-75 197.5t74.5 198t195.5 74q116 0 185.5 -69t69.5 -193v-59z
M307 398q-33 0 -52.5 -21.5t-21.5 -58.5h147q-3 80 -73 80z" />
    <glyph glyph-name="Eogonek" unicode="&#x118;" horiz-adv-x="608" 
d="M573 -88l16 -87q-43 -19 -93 -19q-60 0 -98 25.5t-38 76.5q0 56 60 92h-354v748h490v-171h-297v-112h254v-167h-254v-127h298v-169l1 -1l-1 -1h-1q-32 -19 -46 -34t-14 -36q0 -29 32 -29q23 0 45 11z" />
    <glyph glyph-name="eogonek" unicode="&#x119;" horiz-adv-x="603" 
d="M564 211h-331q0 -82 76 -82q53 0 67 40l183 -9q-10 -60 -54.5 -102t-110.5 -59q-31 -19 -44.5 -34t-13.5 -35q0 -29 32 -29q23 0 45 11l16 -87q-43 -19 -93 -19q-60 0 -98 25.5t-38 76.5t51 86q-98 18 -155 88.5t-57 177.5q0 124 74.5 198t195.5 74q116 0 185.5 -69
t69.5 -193v-59zM307 398q-33 0 -52.5 -21.5t-21.5 -58.5h147q-3 80 -73 80z" />
    <glyph glyph-name="Ecaron" unicode="&#x11a;" horiz-adv-x="608" 
d="M404 795h-177l-115 170h152l51 -66l52 66h151zM556 577h-297v-112h254v-167h-254v-127h298v-171h-491v748h490v-171z" />
    <glyph glyph-name="ecaron" unicode="&#x11b;" horiz-adv-x="603" 
d="M217 598l-115 182h152l51 -64l52 64h151l-114 -182h-177zM564 211h-331q0 -82 76 -82q53 0 67 40l183 -9q-12 -78 -81.5 -124.5t-163.5 -46.5q-125 0 -200 73.5t-75 197.5t74.5 198t195.5 74q116 0 185.5 -69t69.5 -193v-59zM307 398q-33 0 -52.5 -21.5t-21.5 -58.5h147
q-3 80 -73 80z" />
    <glyph glyph-name="Gcircumflex" unicode="&#x11c;" horiz-adv-x="843" 
d="M374 795h-152l115 170h177l114 -170h-151l-52 66zM796 426v-62q0 -167 -98 -271t-265 -104q-172 0 -280.5 104t-108.5 281t108.5 281t280.5 104q132 0 226.5 -66t128.5 -186l-200 -33q-36 114 -157 114q-91 0 -140.5 -53.5t-49.5 -160.5t49.5 -160.5t140.5 -53.5
q112 0 149 95h-149v171h365z" />
    <glyph glyph-name="gcircumflex" unicode="&#x11d;" horiz-adv-x="650" 
d="M522 600h-151l-52 65l-51 -65h-152l115 182h177zM290 532q86 0 137 -45v34h172v-534q0 -114 -74 -183t-198 -69q-126 0 -195 55.5t-83 153.5l182 6q5 -61 89 -61q46 0 71.5 21.5t25.5 63.5v51q-49 -36 -127 -36q-112 0 -181.5 75.5t-69.5 195.5q0 121 69.5 196.5
t181.5 75.5zM321 376q-45 0 -71.5 -30.5t-26.5 -85.5q0 -54 26.5 -84.5t71.5 -30.5q43 0 69.5 29.5t26.5 76.5v19q0 47 -26.5 76.5t-69.5 29.5z" />
    <glyph glyph-name="Gbreve" unicode="&#x11e;" horiz-adv-x="843" 
d="M425 791q-92 0 -147.5 47t-55.5 138h148q0 -28 15 -44t40 -16q26 0 41 16t15 44h148q0 -91 -56 -138t-148 -47zM796 426v-62q0 -167 -98 -271t-265 -104q-172 0 -280.5 104t-108.5 281t108.5 281t280.5 104q132 0 226.5 -66t128.5 -186l-200 -33q-36 114 -157 114
q-91 0 -140.5 -53.5t-49.5 -160.5t49.5 -160.5t140.5 -53.5q112 0 149 95h-149v171h365z" />
    <glyph glyph-name="gbreve" unicode="&#x11f;" horiz-adv-x="650" 
d="M375 774h148q0 -91 -56 -138t-148 -47t-147.5 47t-55.5 138h148q0 -28 15 -44t40 -16q26 0 41 16t15 44zM290 532q86 0 137 -45v34h172v-534q0 -114 -74 -183t-198 -69q-126 0 -195 55.5t-83 153.5l182 6q5 -61 89 -61q46 0 71.5 21.5t25.5 63.5v51q-49 -36 -127 -36
q-112 0 -181.5 75.5t-69.5 195.5q0 121 69.5 196.5t181.5 75.5zM321 376q-45 0 -71.5 -30.5t-26.5 -85.5q0 -54 26.5 -84.5t71.5 -30.5q43 0 69.5 29.5t26.5 76.5v19q0 47 -26.5 76.5t-69.5 29.5z" />
    <glyph glyph-name="Gdotaccent" unicode="&#x120;" horiz-adv-x="843" 
d="M425 791q-44 0 -74.5 30.5t-30.5 74.5t31 75.5t74 31.5q45 0 76 -31.5t31 -75.5t-31 -74.5t-76 -30.5zM796 426v-62q0 -167 -98 -271t-265 -104q-172 0 -280.5 104t-108.5 281t108.5 281t280.5 104q132 0 226.5 -66t128.5 -186l-200 -33q-36 114 -157 114
q-91 0 -140.5 -53.5t-49.5 -160.5t49.5 -160.5t140.5 -53.5q112 0 149 95h-149v171h365z" />
    <glyph glyph-name="gdotaccent" unicode="&#x121;" horiz-adv-x="650" 
d="M319 789q45 0 76 -31.5t31 -75.5t-31 -74.5t-76 -30.5q-44 0 -74.5 30.5t-30.5 74.5t31 75.5t74 31.5zM290 532q86 0 137 -45v34h172v-534q0 -114 -74 -183t-198 -69q-126 0 -195 55.5t-83 153.5l182 6q5 -61 89 -61q46 0 71.5 21.5t25.5 63.5v51q-49 -36 -127 -36
q-112 0 -181.5 75.5t-69.5 195.5q0 121 69.5 196.5t181.5 75.5zM321 376q-45 0 -71.5 -30.5t-26.5 -85.5q0 -54 26.5 -84.5t71.5 -30.5q43 0 69.5 29.5t26.5 76.5v19q0 47 -26.5 76.5t-69.5 29.5z" />
    <glyph glyph-name="Gcommaaccent" unicode="&#x122;" horiz-adv-x="843" 
d="M796 426v-62q0 -167 -98 -271t-265 -104q-172 0 -280.5 104t-108.5 281t108.5 281t280.5 104q132 0 226.5 -66t128.5 -186l-200 -33q-36 114 -157 114q-91 0 -140.5 -53.5t-49.5 -160.5t49.5 -160.5t140.5 -53.5q112 0 149 95h-149v171h365zM428 -49q46 0 72 -32.5
t26 -83.5v-1v-1q-2 -164 -177 -252v75q52 32 70 84q-41 4 -68 33.5t-27 70.5q0 45 29.5 76t74.5 31z" />
    <glyph glyph-name="gcommaaccent" unicode="&#x123;" horiz-adv-x="650" 
d="M324 727q-41 4 -68 33.5t-27 71.5q0 44 29.5 75t74.5 31q46 0 72 -32.5t26 -83.5v-1v-1q-2 -164 -177 -252v75q52 31 70 84zM599 521v-534q0 -114 -74 -183t-198 -69q-126 0 -195 55.5t-83 153.5l182 6q5 -61 89 -61q46 0 71.5 21.5t25.5 63.5v51q-49 -36 -127 -36
q-112 0 -181.5 75.5t-69.5 195.5q0 121 69.5 196.5t181.5 75.5q86 0 137 -45v34h172zM417 251v19q0 47 -26.5 76.5t-69.5 29.5q-45 0 -71.5 -30.5t-26.5 -85.5q0 -54 26.5 -84.5t71.5 -30.5q43 0 69.5 29.5t26.5 76.5z" />
    <glyph glyph-name="Hcircumflex" unicode="&#x124;" horiz-adv-x="768" 
d="M587 795h-151l-52 66l-51 -66h-152l115 170h177zM702 0h-193v296h-250v-296h-193v748h193v-281h250v281h193v-748z" />
    <glyph glyph-name="hcircumflex" unicode="&#x125;" horiz-adv-x="625" 
d="M360 803h-152l-51 67l-51 -67h-152l114 171h177zM245 777v-285q44 40 118 40q93 0 148 -54t55 -153v-325h-182v281q0 81 -68 81q-33 0 -52 -21.5t-19 -60.5v-280h-182v777h182z" />
    <glyph glyph-name="Hbar" unicode="&#x126;" horiz-adv-x="789" 
d="M779 532h-67v-532h-192v296h-251v-296h-192v532h-67v146h67v70h192v-70h251v70h192v-70h67v-146zM520 532h-251v-65h251v65z" />
    <glyph glyph-name="hbar" unicode="&#x127;" horiz-adv-x="625" 
d="M363 532q93 0 148 -54t55 -153v-325h-182v281q0 81 -68 81q-33 0 -52 -21.5t-19 -60.5v-280h-182v586h-60v140h60v51h182v-51h80v-140h-80v-94q44 40 118 40z" />
    <glyph glyph-name="Itilde" unicode="&#x128;" horiz-adv-x="325" 
d="M92 974q35 0 74.5 -24.5t56.5 -24.5q37 0 37 42h102q7 -72 -26 -125.5t-92 -53.5q-37 0 -76.5 25t-54.5 25q-37 0 -37 -43h-102q-7 73 25.5 126t92.5 53zM259 0h-193v748h193v-748z" />
    <glyph glyph-name="itilde" unicode="&#x129;" 
d="M82 776q35 0 74.5 -24.5t56.5 -24.5q37 0 37 42h102q7 -72 -26 -125t-92 -53q-36 0 -76 24.5t-55 24.5q-37 0 -37 -42h-102q-7 72 26 125t92 53zM245 0h-182v521h182v-521z" />
    <glyph glyph-name="Imacron" unicode="&#x12a;" horiz-adv-x="325" 
d="M330 803h-323v139h323v-139zM259 0h-193v748h193v-748z" />
    <glyph glyph-name="imacron" unicode="&#x12b;" 
d="M319 609h-323v140h323v-140zM245 0h-182v521h182v-521z" />
    <glyph glyph-name="Ibreve" unicode="&#x12c;" horiz-adv-x="325" 
d="M224 976h148q0 -91 -56 -138t-148 -47t-147.5 47t-55.5 138h148q0 -28 15 -44t40 -16q26 0 41 16t15 44zM259 0h-193v748h193v-748z" />
    <glyph glyph-name="ibreve" unicode="&#x12d;" 
d="M214 774h148q0 -91 -56 -138t-148 -47t-147.5 47t-55.5 138h148q0 -28 15 -44t40 -16q26 0 41 16t15 44zM245 0h-182v521h182v-521z" />
    <glyph glyph-name="Iogonek" unicode="&#x12e;" horiz-adv-x="325" 
d="M259 0h-77q-31 -19 -45 -34t-14 -35q0 -29 32 -29q23 0 45 11l16 -87q-43 -19 -93 -19q-60 0 -98 25.5t-38 76.5q0 64 79 102v737h193v-748z" />
    <glyph glyph-name="iogonek" unicode="&#x12f;" 
d="M157 577q-44 0 -74.5 30.5t-30.5 74.5t31 75.5t74 31.5q45 0 76 -31.5t31 -75.5t-31 -74.5t-76 -30.5zM63 521h182v-521h-46q-31 -19 -45 -34t-14 -35q0 -29 32 -29q23 0 45 11l16 -87q-43 -19 -93 -19q-60 0 -98 25.5t-38 76.5q0 57 59 91v521z" />
    <glyph glyph-name="Idotaccent" unicode="&#x130;" horiz-adv-x="325" 
d="M168 1003q45 0 76 -31.5t31 -75.5t-31 -74.5t-76 -30.5q-44 0 -74.5 30.5t-30.5 74.5t31 75.5t74 31.5zM259 0h-193v748h193v-748z" />
    <glyph glyph-name="dotlessi" unicode="&#x131;" 
d="M245 0h-182v521h182v-521z" />
    <glyph glyph-name="Jcircumflex" unicode="&#x134;" horiz-adv-x="635" 
d="M690 795h-151l-52 66l-51 -66h-152l115 170h177zM574 748v-463q0 -139 -74.5 -217.5t-207.5 -78.5q-121 0 -195 69t-82 194l193 32q8 -124 86 -124q87 0 87 118v470h193z" />
    <glyph glyph-name="jcircumflex" unicode="&#x135;" 
d="M355 600h-151l-52 65l-51 -65h-152l115 182h177zM245 521v-556q0 -116 -59.5 -173.5t-156.5 -57.5t-155 41l73 149q32 -30 63 -30q53 0 53 61v566h182z" />
    <glyph glyph-name="Kcommaaccent" unicode="&#x136;" horiz-adv-x="749" 
d="M742 0h-221l-169 293l-93 -116v-177h-193v748h193v-280l214 280h248l-241 -298zM383 -44q46 0 72 -32.5t26 -83.5v-1v-1q-2 -164 -177 -252v75q52 31 70 84q-41 4 -68 33.5t-27 70.5q0 45 29.5 76t74.5 31z" />
    <glyph glyph-name="kcommaaccent" unicode="&#x137;" horiz-adv-x="609" 
d="M245 0h-182v777h182v-415l131 159h222l-183 -220l190 -301h-215l-104 164l-41 -47v-117zM311 -44q46 0 72 -32.5t26 -83.5v-1v-1q-2 -164 -177 -252v75q52 31 70 84q-41 4 -68 33.5t-27 70.5q0 45 29.5 76t74.5 31z" />
    <glyph glyph-name="Lacute" unicode="&#x139;" horiz-adv-x="591" 
d="M251 795h-164l116 162h247zM259 171h297v-171h-490v748h193v-577z" />
    <glyph glyph-name="lacute" unicode="&#x13a;" 
d="M243 814h-164l116 162h247zM245 0h-182v777h182v-777z" />
    <glyph glyph-name="Lcommaaccent" unicode="&#x13b;" horiz-adv-x="591" 
d="M556 171v-171h-490v748h193v-577h297zM319 -44q46 0 72 -32.5t26 -83.5v-1v-1q-2 -164 -177 -252v75q52 31 70 84q-41 4 -68 33.5t-27 70.5q0 45 29.5 76t74.5 31z" />
    <glyph glyph-name="lcommaaccent" unicode="&#x13c;" 
d="M245 0h-182v777h182v-777zM254 -161v-1q-2 -164 -177 -252v75q52 31 70 84q-41 4 -68 33.5t-27 70.5q0 45 29.5 76t74.5 31q46 0 72 -32.5t26 -84.5z" />
    <glyph glyph-name="Lcaron" unicode="&#x13d;" horiz-adv-x="591" 
d="M613 674v-1q-2 -164 -177 -252v75q52 32 70 84q-41 4 -68 33.5t-27 71.5q0 44 29.5 75t74.5 31q46 0 72 -32.5t26 -84.5zM259 171h297v-171h-490v748h193v-577z" />
    <glyph glyph-name="lcaron" unicode="&#x13e;" horiz-adv-x="500" 
d="M490 674v-1q-2 -164 -177 -252v75q53 32 70 84q-41 4 -68 33.5t-27 71.5q0 44 29.5 75t74.5 31q46 0 72 -32.5t26 -84.5zM63 777h182v-777h-182v777z" />
    <glyph glyph-name="Ldot" unicode="&#x13f;" horiz-adv-x="591" 
d="M259 171h297v-171h-490v748h193v-577zM472 537q44 0 75 -31t31 -75q0 -45 -31 -75.5t-75 -30.5t-75 30.5t-31 75.5q0 44 31 75t75 31z" />
    <glyph glyph-name="ldot" unicode="&#x140;" horiz-adv-x="517" 
d="M245 0h-182v777h182v-777zM387 447q44 0 75 -31t31 -75q0 -45 -31 -75.5t-75 -30.5t-75 30.5t-31 75.5q0 44 31 75t75 31z" />
    <glyph glyph-name="Lslash" unicode="&#x141;" horiz-adv-x="601" 
d="M566 171v-171h-490v282l-62 -8l-20 146l82 11v317h193v-292l73 9l20 -146l-93 -12v-136h297z" />
    <glyph glyph-name="lslash" unicode="&#x142;" horiz-adv-x="334" 
d="M261 251v-251h-183v211l-66 -14l-32 144l98 21v415h183v-375l62 13l32 -143z" />
    <glyph glyph-name="Nacute" unicode="&#x143;" horiz-adv-x="773" 
d="M457 795h-164l116 162h247zM707 0h-165l-283 392v-392h-193v748h164l284 -394v394h193v-748z" />
    <glyph glyph-name="nacute" unicode="&#x144;" horiz-adv-x="624" 
d="M393 600h-142l73 191h206zM363 532q93 0 148 -54t55 -153v-325h-182v281q0 81 -68 81q-33 0 -52 -21.5t-19 -60.5v-280h-182v521h172v-36q38 47 128 47z" />
    <glyph glyph-name="Ncommaaccent" unicode="&#x145;" horiz-adv-x="773" 
d="M707 748v-748h-165l-283 392v-392h-193v748h164l284 -394v394h193zM406 -44q46 0 72 -32.5t26 -83.5v-1v-1q-2 -164 -177 -252v75q52 31 70 84q-41 4 -68 33.5t-27 70.5q0 45 29.5 76t74.5 31z" />
    <glyph glyph-name="ncommaaccent" unicode="&#x146;" horiz-adv-x="624" 
d="M363 532q93 0 148 -54t55 -153v-325h-182v281q0 81 -68 81q-33 0 -52 -21.5t-19 -60.5v-280h-182v521h172v-36q38 47 128 47zM315 -44q46 0 72 -32.5t26 -83.5v-1v-1q-2 -164 -177 -252v75q52 31 70 84q-41 4 -68 33.5t-27 70.5q0 45 29.5 76t74.5 31z" />
    <glyph glyph-name="Ncaron" unicode="&#x147;" horiz-adv-x="773" 
d="M465 795h-177l-115 170h152l51 -66l52 66h151zM707 0h-165l-283 392v-392h-193v748h164l284 -394v394h193v-748z" />
    <glyph glyph-name="ncaron" unicode="&#x148;" horiz-adv-x="624" 
d="M413 598h-177l-115 182h152l51 -64l52 64h151zM363 532q93 0 148 -54t55 -153v-325h-182v281q0 81 -68 81q-33 0 -52 -21.5t-19 -60.5v-280h-182v521h172v-36q38 47 128 47z" />
    <glyph glyph-name="Eng" unicode="&#x14a;" horiz-adv-x="773" 
d="M707 748v-762q0 -101 -77 -171t-205 -70v171q89 0 89 119v4l-255 353v-392h-193v748h164l284 -394v394h193z" />
    <glyph glyph-name="eng" unicode="&#x14b;" horiz-adv-x="624" 
d="M363 532q93 0 148 -54t55 -153v-359q0 -104 -67 -166.5t-181 -62.5v158q26 0 46 19.5t20 47.5v319q0 81 -68 81q-33 0 -52 -21.5t-19 -60.5v-280h-182v521h172v-36q38 47 128 47z" />
    <glyph glyph-name="Omacron" unicode="&#x14c;" horiz-adv-x="880" 
d="M603 803h-323v139h323v-139zM441 759q174 0 284.5 -105.5t110.5 -279.5t-110.5 -279.5t-284.5 -105.5q-176 0 -286.5 105.5t-110.5 279.5t110.5 279.5t286.5 105.5zM441 588q-92 0 -146 -57.5t-54 -156.5t54 -156.5t146 -57.5q91 0 144.5 57.5t53.5 156.5t-53.5 156.5
t-144.5 57.5z" />
    <glyph glyph-name="omacron" unicode="&#x14d;" horiz-adv-x="643" 
d="M482 609h-323v140h323v-140zM321 532q125 0 204 -75.5t79 -196.5t-79 -196t-204 -75q-124 0 -203 75t-79 196t79 196.5t203 75.5zM321 376q-45 0 -71.5 -31t-26.5 -85t26.5 -84.5t71.5 -30.5q46 0 72.5 30.5t26.5 84.5t-26.5 85t-72.5 31z" />
    <glyph glyph-name="Obreve" unicode="&#x14e;" horiz-adv-x="880" 
d="M497 976h148q0 -91 -56 -138t-148 -47t-147.5 47t-55.5 138h148q0 -28 15 -44t40 -16q26 0 41 16t15 44zM441 759q174 0 284.5 -105.5t110.5 -279.5t-110.5 -279.5t-284.5 -105.5q-176 0 -286.5 105.5t-110.5 279.5t110.5 279.5t286.5 105.5zM441 588q-92 0 -146 -57.5
t-54 -156.5t54 -156.5t146 -57.5q91 0 144.5 57.5t53.5 156.5t-53.5 156.5t-144.5 57.5z" />
    <glyph glyph-name="obreve" unicode="&#x14f;" horiz-adv-x="643" 
d="M376 774h148q0 -91 -56 -138t-148 -47t-147.5 47t-55.5 138h148q0 -28 15 -44t40 -16q26 0 41 16t15 44zM321 532q125 0 204 -75.5t79 -196.5t-79 -196t-204 -75q-124 0 -203 75t-79 196t79 196.5t203 75.5zM321 376q-45 0 -71.5 -31t-26.5 -85t26.5 -84.5t71.5 -30.5
q46 0 72.5 30.5t26.5 84.5t-26.5 85t-72.5 31z" />
    <glyph glyph-name="Ohungarumlaut" unicode="&#x150;" horiz-adv-x="880" 
d="M395 798h-142l62 182h172zM617 798h-142l62 182h172zM441 759q174 0 284.5 -105.5t110.5 -279.5t-110.5 -279.5t-284.5 -105.5q-176 0 -286.5 105.5t-110.5 279.5t110.5 279.5t286.5 105.5zM441 588q-92 0 -146 -57.5t-54 -156.5t54 -156.5t146 -57.5q91 0 144.5 57.5
t53.5 156.5t-53.5 156.5t-144.5 57.5z" />
    <glyph glyph-name="ohungarumlaut" unicode="&#x151;" horiz-adv-x="643" 
d="M279 600h-142l62 193h172zM501 600h-142l62 193h172zM321 532q125 0 204 -75.5t79 -196.5t-79 -196t-204 -75q-124 0 -203 75t-79 196t79 196.5t203 75.5zM321 376q-45 0 -71.5 -31t-26.5 -85t26.5 -84.5t71.5 -30.5q46 0 72.5 30.5t26.5 84.5t-26.5 85t-72.5 31z" />
    <glyph glyph-name="OE" unicode="&#x152;" horiz-adv-x="1181" 
d="M1130 171v-171h-491v33q-90 -44 -198 -44q-176 0 -286.5 105.5t-110.5 279.5t110.5 279.5t286.5 105.5q108 0 198 -44v33h490v-171h-297v-112h254v-167h-254v-127h298zM441 160q91 0 144.5 57.5t53.5 156.5t-53.5 156.5t-144.5 57.5q-92 0 -146 -57.5t-54 -156.5
t54 -156.5t146 -57.5z" />
    <glyph glyph-name="oe" unicode="&#x153;" horiz-adv-x="984" 
d="M945 211h-331q0 -82 76 -82q53 0 66 40l184 -9q-12 -78 -81.5 -124.5t-164.5 -46.5q-111 0 -185 61q-77 -61 -188 -61q-124 0 -203 75t-79 196t79 196.5t203 75.5q112 0 187 -61q74 61 182 61q116 0 185.5 -69t69.5 -193v-59zM688 398q-33 0 -52.5 -21.5t-21.5 -58.5h146
q-3 80 -72 80zM321 145q46 0 72.5 30.5t26.5 84.5t-26.5 85t-72.5 31q-45 0 -71.5 -31t-26.5 -85t26.5 -84.5t71.5 -30.5z" />
    <glyph glyph-name="Racute" unicode="&#x154;" horiz-adv-x="720" 
d="M401 795h-164l116 162h247zM474 0l-133 250h-82v-250h-193v748h338q114 0 181.5 -66t67.5 -183q0 -153 -112 -216l151 -283h-218zM259 421h122q36 0 56 21t20 57t-20 57t-56 21h-122v-156z" />
    <glyph glyph-name="racute" unicode="&#x155;" horiz-adv-x="402" 
d="M309 600h-142l73 191h206zM376 526v-176q-60 0 -95.5 -29t-35.5 -78v-243h-182v521h176v-44q45 49 137 49z" />
    <glyph glyph-name="Rcommaaccent" unicode="&#x156;" horiz-adv-x="720" 
d="M692 0h-218l-133 250h-82v-250h-193v748h338q114 0 181.5 -66t67.5 -183q0 -153 -112 -216zM259 421h122q36 0 56 21t20 57t-20 57t-56 21h-122v-156zM364 -44q46 0 72 -32.5t26 -83.5v-1v-1q-2 -164 -177 -252v75q53 31 70 84q-41 4 -68 33.5t-27 70.5q0 45 29.5 76
t74.5 31z" />
    <glyph glyph-name="rcommaaccent" unicode="&#x157;" horiz-adv-x="402" 
d="M239 521v-44q45 49 137 49v-176q-60 0 -95.5 -29t-35.5 -78v-243h-182v521h176zM155 -44q46 0 72 -32.5t26 -83.5v-1v-1q-2 -164 -177 -252v75q52 31 70 84q-41 4 -68 33.5t-27 70.5q0 45 29.5 76t74.5 31z" />
    <glyph glyph-name="Rcaron" unicode="&#x158;" horiz-adv-x="720" 
d="M232 795l-115 170h152l51 -66l52 66h151l-114 -170h-177zM474 0l-133 250h-82v-250h-193v748h338q114 0 181.5 -66t67.5 -183q0 -153 -112 -216l151 -283h-218zM259 421h122q36 0 56 21t20 57t-20 57t-56 21h-122v-156z" />
    <glyph glyph-name="rcaron" unicode="&#x159;" horiz-adv-x="402" 
d="M329 598h-177l-115 182h152l51 -64l52 64h151zM376 526v-176q-60 0 -95.5 -29t-35.5 -78v-243h-182v521h176v-44q45 49 137 49z" />
    <glyph glyph-name="Sacute" unicode="&#x15a;" horiz-adv-x="668" 
d="M413 795h-164l116 162h247zM328 759q131 0 210 -65t80 -178l-197 -10q0 39 -23 62.5t-66 23.5q-36 0 -57.5 -17.5t-21.5 -48.5q0 -28 25.5 -43t98.5 -32q126 -34 189 -83t63 -142q0 -118 -79 -177.5t-202 -59.5q-140 0 -225 66.5t-84 186.5l197 10q-1 -43 30.5 -69.5
t81.5 -26.5q84 0 84 60q0 27 -30 45.5t-97 35.5q-60 15 -98 29.5t-76 39.5t-56.5 63t-18.5 91q0 103 70.5 171t201.5 68z" />
    <glyph glyph-name="sacute" unicode="&#x15b;" horiz-adv-x="510" 
d="M316 600h-142l73 191h206zM252 532q103 0 160 -46t63 -125l-182 -10q2 53 -41 53q-38 0 -38 -31q0 -9 4.5 -15.5t17.5 -12.5t22 -8.5l35 -9.5q7 -2 11 -3q88 -24 131.5 -56.5t43.5 -97.5q0 -83 -58.5 -132t-165.5 -49q-216 0 -231 171l183 10q-2 -53 48 -53q41 0 41 34
q0 15 -14.5 24.5t-60.5 21.5q-101 25 -145 57t-44 107q0 79 59 125t161 46z" />
    <glyph glyph-name="Scircumflex" unicode="&#x15c;" horiz-adv-x="668" 
d="M535 795h-151l-52 66l-51 -66h-152l115 170h177zM328 759q131 0 210 -65t80 -178l-197 -10q0 39 -23 62.5t-66 23.5q-36 0 -57.5 -17.5t-21.5 -48.5q0 -28 25.5 -43t98.5 -32q126 -34 189 -83t63 -142q0 -118 -79 -177.5t-202 -59.5q-140 0 -225 66.5t-84 186.5l197 10
q-1 -43 30.5 -69.5t81.5 -26.5q84 0 84 60q0 27 -30 45.5t-97 35.5q-60 15 -98 29.5t-76 39.5t-56.5 63t-18.5 91q0 103 70.5 171t201.5 68z" />
    <glyph glyph-name="scircumflex" unicode="&#x15d;" horiz-adv-x="510" 
d="M450 600h-151l-52 65l-51 -65h-152l115 182h177zM252 532q103 0 160 -46t63 -125l-182 -10q2 53 -41 53q-38 0 -38 -31q0 -9 4.5 -15.5t17.5 -12.5t22 -8.5l35 -9.5q7 -2 11 -3q88 -24 131.5 -56.5t43.5 -97.5q0 -83 -58.5 -132t-165.5 -49q-216 0 -231 171l183 10
q-2 -53 48 -53q41 0 41 34q0 15 -14.5 24.5t-60.5 21.5q-101 25 -145 57t-44 107q0 79 59 125t161 46z" />
    <glyph glyph-name="Scedilla" unicode="&#x15e;" horiz-adv-x="668" 
d="M629 226q0 -112 -71 -171t-184 -65l-10 -36q46 -2 81.5 -31.5t35.5 -79.5q0 -51 -43 -77.5t-103 -26.5q-65 0 -103 19l27 86q20 -10 44 -10q42 0 42 29q0 15 -12 23.5t-29 8.5q-24 0 -38 -7l36 103q-121 11 -192.5 76t-70.5 175l197 10q-1 -43 30.5 -69.5t81.5 -26.5
q84 0 84 60q0 27 -30 45.5t-97 35.5q-60 15 -98 29.5t-76 39.5t-56.5 63t-18.5 91q0 103 70.5 171t201.5 68t210 -65t80 -178l-197 -10q0 39 -23 62.5t-66 23.5q-36 0 -57.5 -17.5t-21.5 -48.5q0 -28 25.5 -43t98.5 -32q126 -34 189 -83t63 -142z" />
    <glyph glyph-name="scedilla" unicode="&#x15f;" horiz-adv-x="510" 
d="M479 170q0 -76 -50 -124.5t-143 -55.5l-10 -36q46 -2 81.5 -31.5t35.5 -79.5q0 -51 -43 -77.5t-103 -26.5q-65 0 -103 19l27 86q20 -10 44 -10q42 0 42 29q0 15 -12 23.5t-29 8.5q-24 0 -38 -7l36 103q-176 15 -190 169l183 10q-2 -53 48 -53q41 0 41 34q0 15 -14.5 24.5
t-60.5 21.5q-101 25 -145 57t-44 107q0 79 59 125t161 46q103 0 160 -46t63 -125l-182 -10q2 53 -41 53q-38 0 -38 -31q0 -9 4.5 -15.5t17.5 -12.5t22 -8.5l35 -9.5q7 -2 11 -3q88 -24 131.5 -56.5t43.5 -97.5z" />
    <glyph glyph-name="Scaron" unicode="&#x160;" horiz-adv-x="668" 
d="M421 795h-177l-115 170h152l51 -66l52 66h151zM328 759q131 0 210 -65t80 -178l-197 -10q0 39 -23 62.5t-66 23.5q-36 0 -57.5 -17.5t-21.5 -48.5q0 -28 25.5 -43t98.5 -32q126 -34 189 -83t63 -142q0 -118 -79 -177.5t-202 -59.5q-140 0 -225 66.5t-84 186.5l197 10
q-1 -43 30.5 -69.5t81.5 -26.5q84 0 84 60q0 27 -30 45.5t-97 35.5q-60 15 -98 29.5t-76 39.5t-56.5 63t-18.5 91q0 103 70.5 171t201.5 68z" />
    <glyph glyph-name="scaron" unicode="&#x161;" horiz-adv-x="510" 
d="M336 598h-177l-115 182h152l51 -64l52 64h151zM252 532q103 0 160 -46t63 -125l-182 -10q2 53 -41 53q-38 0 -38 -31q0 -9 4.5 -15.5t17.5 -12.5t22 -8.5l35 -9.5q7 -2 11 -3q88 -24 131.5 -56.5t43.5 -97.5q0 -83 -58.5 -132t-165.5 -49q-216 0 -231 171l183 10
q-2 -53 48 -53q41 0 41 34q0 15 -14.5 24.5t-60.5 21.5q-101 25 -145 57t-44 107q0 79 59 125t161 46z" />
    <glyph glyph-name="Tcaron" unicode="&#x164;" horiz-adv-x="700" 
d="M443 795h-177l-115 170h152l51 -66l52 66h151zM680 577h-233v-577h-193v577h-234v171h660v-171z" />
    <glyph glyph-name="tcaron" unicode="&#x165;" horiz-adv-x="629" 
d="M618 674v-1q-2 -164 -177 -252v75q53 32 70 84q-41 4 -68 33.5t-27 71.5q0 44 29.5 75t74.5 31q46 0 72 -32.5t26 -84.5zM287 521h111v-156h-112l-1 -146q0 -32 20.5 -49.5t49.5 -17.5q21 0 43 4v-161q-48 -6 -88 -6q-97 0 -152.5 45.5t-54.5 136.5l1 194h-94v156h95
l1 168h182z" />
    <glyph glyph-name="Tbar" unicode="&#x166;" horiz-adv-x="700" 
d="M447 577v-157h112v-147h-112v-273h-193v273h-113v147h113v157h-234v171h660v-171h-233z" />
    <glyph glyph-name="tbar" unicode="&#x167;" horiz-adv-x="433" 
d="M286 365v-41h112v-130h-109q14 -42 66 -42q21 0 43 4v-161q-48 -6 -88 -6q-97 0 -152.5 45.5t-54.5 136.5v23h-93v130h94v41h-94v156h95l1 168h182l-1 -168h111v-156h-112z" />
    <glyph glyph-name="Utilde" unicode="&#x168;" horiz-adv-x="785" 
d="M316 974q35 0 74.5 -24.5t56.5 -24.5q37 0 37 42h102q7 -72 -26 -125.5t-92 -53.5q-36 0 -76 25t-55 25q-37 0 -37 -43h-102q-7 73 25.5 126t92.5 53zM723 748v-430q0 -155 -87.5 -242t-242.5 -87q-156 0 -244 87t-88 242v430h193v-427q0 -161 139 -161q138 0 138 161
v427h192z" />
    <glyph glyph-name="utilde" unicode="&#x169;" horiz-adv-x="609" 
d="M228 776q35 0 74.5 -24.5t56.5 -24.5q37 0 37 42h102q7 -72 -26 -125t-92 -53q-36 0 -76 24.5t-55 24.5q-37 0 -37 -42h-102q-7 72 26 125t92 53zM546 0h-172v36q-38 -47 -122 -47q-92 0 -143 50.5t-51 147.5v334h182v-289q0 -39 13.5 -56t46.5 -17q64 0 64 71v291h182
v-521z" />
    <glyph glyph-name="Umacron" unicode="&#x16a;" horiz-adv-x="785" 
d="M554 803h-323v139h323v-139zM723 748v-430q0 -155 -87.5 -242t-242.5 -87q-156 0 -244 87t-88 242v430h193v-427q0 -161 139 -161q138 0 138 161v427h192z" />
    <glyph glyph-name="umacron" unicode="&#x16b;" horiz-adv-x="609" 
d="M466 609h-323v140h323v-140zM546 0h-172v36q-38 -47 -122 -47q-92 0 -143 50.5t-51 147.5v334h182v-289q0 -39 13.5 -56t46.5 -17q64 0 64 71v291h182v-521z" />
    <glyph glyph-name="Ubreve" unicode="&#x16c;" horiz-adv-x="785" 
d="M448 976h148q0 -91 -56 -138t-148 -47t-147.5 47t-55.5 138h148q0 -28 15 -44t40 -16q26 0 41 16t15 44zM723 748v-430q0 -155 -87.5 -242t-242.5 -87q-156 0 -244 87t-88 242v430h193v-427q0 -161 139 -161q138 0 138 161v427h192z" />
    <glyph glyph-name="ubreve" unicode="&#x16d;" horiz-adv-x="609" 
d="M360 774h148q0 -91 -56 -138t-148 -47t-147.5 47t-55.5 138h148q0 -28 15 -44t40 -16q26 0 41 16t15 44zM546 0h-172v36q-38 -47 -122 -47q-92 0 -143 50.5t-51 147.5v334h182v-289q0 -39 13.5 -56t46.5 -17q64 0 64 71v291h182v-521z" />
    <glyph glyph-name="Uring" unicode="&#x16e;" horiz-adv-x="785" 
d="M393 1019q51 0 86 -32t35 -81t-35 -81t-86 -32q-52 0 -87 32t-35 81q0 50 35 81.5t87 31.5zM393 941q-16 0 -25.5 -10t-9.5 -25t9.5 -24.5t25.5 -9.5q15 0 24.5 9.5t9.5 24.5t-9.5 25t-24.5 10zM723 748v-430q0 -155 -87.5 -242t-242.5 -87q-156 0 -244 87t-88 242v430
h193v-427q0 -161 139 -161q138 0 138 161v427h192z" />
    <glyph glyph-name="uring" unicode="&#x16f;" horiz-adv-x="609" 
d="M305 838q59 0 100 -37.5t41 -93.5q0 -57 -41 -94.5t-100 -37.5q-60 0 -101 37.5t-41 94.5q0 56 41 93.5t101 37.5zM305 745q-18 0 -28.5 -10.5t-10.5 -27.5t10.5 -28t28.5 -11q17 0 27.5 11t10.5 28t-10.5 27.5t-27.5 10.5zM546 0h-172v36q-38 -47 -122 -47
q-92 0 -143 50.5t-51 147.5v334h182v-289q0 -39 13.5 -56t46.5 -17q64 0 64 71v291h182v-521z" />
    <glyph glyph-name="Uhungarumlaut" unicode="&#x170;" horiz-adv-x="785" 
d="M346 798h-142l62 182h172zM568 798h-142l62 182h172zM723 748v-430q0 -155 -87.5 -242t-242.5 -87q-156 0 -244 87t-88 242v430h193v-427q0 -161 139 -161q138 0 138 161v427h192z" />
    <glyph glyph-name="uhungarumlaut" unicode="&#x171;" horiz-adv-x="609" 
d="M263 600h-142l62 193h172zM485 600h-142l62 193h172zM546 0h-172v36q-38 -47 -122 -47q-92 0 -143 50.5t-51 147.5v334h182v-289q0 -39 13.5 -56t46.5 -17q64 0 64 71v291h182v-521z" />
    <glyph glyph-name="Uogonek" unicode="&#x172;" horiz-adv-x="785" 
d="M723 748v-430q0 -128 -61 -211t-173 -108q-30 -18 -43.5 -33t-13.5 -35q0 -29 32 -29q23 0 45 11l16 -87q-43 -19 -93 -19q-60 0 -98 25.5t-38 76.5q0 50 46 83q-132 14 -206.5 99.5t-74.5 226.5v430h193v-427q0 -161 139 -161q138 0 138 161v427h192z" />
    <glyph glyph-name="uogonek" unicode="&#x173;" horiz-adv-x="609" 
d="M546 0h-36q-32 -19 -46 -34t-14 -36q0 -29 32 -29q23 0 45 11l16 -87q-43 -19 -93 -19q-60 0 -98 25.5t-38 76.5q0 56 60 92v36q-38 -47 -122 -47q-92 0 -143 50.5t-51 147.5v334h182v-289q0 -39 13.5 -56t46.5 -17q64 0 64 71v291h182v-521z" />
    <glyph glyph-name="Wcircumflex" unicode="&#x174;" horiz-adv-x="1129" 
d="M768 795h-151l-52 66l-51 -66h-152l115 170h177zM861 0h-163l-134 413l-134 -413h-162l-261 748h212l132 -430l134 430h159l133 -430l133 430h212z" />
    <glyph glyph-name="wcircumflex" unicode="&#x175;" horiz-adv-x="862" 
d="M637 600h-151l-52 65l-51 -65h-152l115 182h177zM660 0h-145l-83 218l-84 -218h-146l-201 521h203l77 -258l86 258h128l86 -258l77 258h203z" />
    <glyph glyph-name="Ycircumflex" unicode="&#x176;" horiz-adv-x="776" 
d="M591 795h-151l-52 66l-51 -66h-152l115 170h177zM485 274v-274h-193v274l-284 474h224l156 -282l156 282h224z" />
    <glyph glyph-name="ycircumflex" unicode="&#x177;" horiz-adv-x="599" 
d="M502 600h-151l-52 65l-51 -65h-152l115 182h177zM262 -255h-199l139 312l-201 464h202l97 -260l96 260h202z" />
    <glyph glyph-name="Ydieresis" unicode="&#x178;" horiz-adv-x="776" 
d="M278 980q40 0 68 -28t28 -68t-27.5 -67.5t-68.5 -27.5q-40 0 -67.5 27.5t-27.5 67.5t27.5 68t67.5 28zM497 980q40 0 68.5 -28t28.5 -68t-28 -67.5t-69 -27.5q-40 0 -67.5 27.5t-27.5 67.5t27.5 68t67.5 28zM485 274v-274h-193v274l-284 474h224l156 -282l156 282h224z
" />
    <glyph glyph-name="Zacute" unicode="&#x179;" horiz-adv-x="631" 
d="M393 795h-164l116 162h247zM587 602l-302 -431h313v-171h-560v146l301 431h-301v171h549v-146z" />
    <glyph glyph-name="zacute" unicode="&#x17a;" horiz-adv-x="459" 
d="M300 600h-142l73 191h206zM420 401l-174 -254h179v-147h-391v120l176 254h-172v147h382v-120z" />
    <glyph glyph-name="Zdotaccent" unicode="&#x17b;" horiz-adv-x="631" 
d="M312 1003q45 0 76 -31.5t31 -75.5t-31 -74.5t-76 -30.5q-44 0 -74.5 30.5t-30.5 74.5t31 75.5t74 31.5zM587 602l-302 -431h313v-171h-560v146l301 431h-301v171h549v-146z" />
    <glyph glyph-name="zdotaccent" unicode="&#x17c;" horiz-adv-x="459" 
d="M232 789q45 0 76 -31.5t31 -75.5t-31 -74.5t-76 -30.5q-44 0 -74.5 30.5t-30.5 74.5t31 75.5t74 31.5zM420 401l-174 -254h179v-147h-391v120l176 254h-172v147h382v-120z" />
    <glyph glyph-name="Zcaron" unicode="&#x17d;" horiz-adv-x="631" 
d="M401 795h-177l-115 170h152l51 -66l52 66h151zM587 602l-302 -431h313v-171h-560v146l301 431h-301v171h549v-146z" />
    <glyph glyph-name="zcaron" unicode="&#x17e;" horiz-adv-x="459" 
d="M321 598h-177l-115 182h152l51 -64l52 64h151zM420 401l-174 -254h179v-147h-391v120l176 254h-172v147h382v-120z" />
    <glyph glyph-name="florin" unicode="&#x192;" horiz-adv-x="452" 
d="M381 786q94 0 156 -40l-73 -149q-23 29 -63 29q-53 0 -63 -52l-9 -53h109v-151h-136l-91 -512h-186l91 512h-86v151h113l15 83q16 91 75.5 136.5t147.5 45.5z" />
    <glyph glyph-name="Aringacute" unicode="&#x1fa;" horiz-adv-x="823" 
d="M423 772q-52 0 -87.5 32t-35.5 81q0 51 35 81l118 123h227l-181 -115q44 -33 44 -89q0 -49 -34.5 -81t-85.5 -32zM423 851q15 0 24.5 10t9.5 24q0 15 -9.5 25t-24.5 10q-17 0 -26 -9.5t-9 -25.5q0 -15 9 -24.5t26 -9.5zM819 0h-212l-52 119h-287l-52 -119h-212l326 748
h163zM490 267l-79 182l-78 -182h157z" />
    <glyph glyph-name="aringacute" unicode="&#x1fb;" horiz-adv-x="566" 
d="M286 571q-52 0 -87 32t-35 81q0 55 41 87l112 117h226l-181 -114q44 -34 44 -90q0 -48 -34.5 -80.5t-85.5 -32.5zM286 651q15 0 24.5 9.5t9.5 23.5q0 16 -9.5 25.5t-24.5 9.5q-16 0 -25.5 -9.5t-9.5 -25.5q0 -15 9.5 -24t25.5 -9zM282 532q111 0 168.5 -53.5t57.5 -159.5
v-319h-171v37q-44 -48 -126 -48q-81 0 -126.5 39.5t-45.5 114.5q0 151 228 161l59 2v27q0 49 -41 49q-24 0 -37 -14.5t-13 -31.5l-182 6q0 74 64.5 132t164.5 58zM325 200l-46 -2q-58 -3 -58 -40q0 -36 41 -36q25 0 44 15t19 38v25z" />
    <glyph glyph-name="AEacute" unicode="&#x1fc;" horiz-adv-x="1073" 
d="M776 795h-164l116 162h247zM1022 171v-171h-491v119h-211l-82 -119h-235l507 748h511v-171h-297v-112h254v-167h-254v-127h298zM531 267v171l-113 -171h113z" />
    <glyph glyph-name="aeacute" unicode="&#x1fd;" horiz-adv-x="891" 
d="M498 600h-142l73 191h206zM853 211h-332q0 -37 19 -59.5t58 -22.5q53 0 66 40l184 -9q-12 -78 -81.5 -124.5t-164.5 -46.5q-120 0 -194 68q-78 -68 -176 -68q-92 0 -142.5 40.5t-50.5 115.5q0 45 18.5 76.5t52.5 48t71.5 24.5t85.5 10l59 2v23q0 52 -43 52
q-23 0 -35.5 -14t-12.5 -31l-182 6q0 74 62 132t161 58t155 -49q69 49 167 49q115 0 185 -69t70 -193v-59zM596 398q-34 0 -53.5 -21.5t-21.5 -58.5h147q-3 80 -72 80zM325 200l-46 -2q-58 -3 -58 -41q0 -35 41 -35q26 0 44.5 15.5t18.5 37.5v25z" />
    <glyph glyph-name="Oslashacute" unicode="&#x1fe;" horiz-adv-x="882" 
d="M522 795h-164l116 162h247zM797 719l-59 -78q98 -104 98 -267q0 -174 -110.5 -279.5t-284.5 -105.5q-97 0 -177 34l-62 -81l-118 90l58 75q-98 106 -98 267q0 174 110.5 279.5t286.5 105.5q95 0 175 -34l63 83zM241 374q0 -60 22 -109l241 315q-30 8 -63 8
q-92 0 -146 -57.5t-54 -156.5zM441 160q91 0 144.5 57.5t53.5 156.5q0 65 -22 110l-241 -315q30 -9 65 -9z" />
    <glyph glyph-name="oslashacute" unicode="&#x1ff;" horiz-adv-x="643" 
d="M389 600h-142l73 191h206zM571 487l-33 -44q66 -72 66 -183q0 -121 -79 -196t-204 -75q-61 0 -110 18l-46 -61l-100 74l42 55q-68 74 -68 185q0 121 79 196.5t203 75.5q59 0 114 -19l36 48zM223 260q0 -9 2 -27l107 143h-11q-45 0 -71.5 -31t-26.5 -85zM314 145h7
q46 0 72.5 30.5t26.5 84.5q0 8 -2 24z" />
    <glyph glyph-name="Scommaaccent" unicode="&#x218;" horiz-adv-x="668" 
d="M377 451q126 -34 189 -83t63 -142q0 -118 -79 -177.5t-202 -59.5q-140 0 -225 66.5t-84 186.5l197 10q-1 -43 30.5 -69.5t81.5 -26.5q84 0 84 60q0 27 -30 45.5t-97 35.5q-60 15 -98 29.5t-76 39.5t-56.5 63t-18.5 91q0 103 70.5 171t201.5 68t210 -65t80 -178l-197 -10
q0 39 -23 62.5t-66 23.5q-36 0 -57.5 -17.5t-21.5 -48.5q0 -28 25.5 -43t98.5 -32zM340 -49q46 0 72 -32.5t26 -83.5v-1v-1q-2 -164 -177 -252v75q53 32 70 84q-41 4 -68 33.5t-27 70.5q0 45 29.5 76t74.5 31z" />
    <glyph glyph-name="scommaaccent" unicode="&#x219;" horiz-adv-x="510" 
d="M304 324q88 -24 131.5 -56.5t43.5 -97.5q0 -83 -58.5 -132t-165.5 -49q-216 0 -231 171l183 10q-2 -53 48 -53q41 0 41 34q0 15 -14.5 24.5t-60.5 21.5q-101 25 -145 57t-44 107q0 79 59 125t161 46q103 0 160 -46t63 -125l-182 -10q2 53 -41 53q-38 0 -38 -31
q0 -9 4.5 -15.5t17.5 -12.5t22 -8.5l35 -9.5q7 -2 11 -3zM253 -49q46 0 72 -32.5t26 -83.5v-1v-1q-2 -164 -177 -252v75q52 32 70 84q-41 4 -68 33.5t-27 70.5q0 45 29.5 76t74.5 31z" />
    <glyph glyph-name="uni021A" unicode="&#x21a;" horiz-adv-x="700" 
d="M680 748v-171h-233v-577h-193v577h-234v171h660zM352 -44q46 0 72 -32.5t26 -83.5v-1v-1q-2 -164 -177 -252v75q53 31 70 84q-41 4 -68 33.5t-27 70.5q0 45 29.5 76t74.5 31z" />
    <glyph glyph-name="uni021B" unicode="&#x21b;" horiz-adv-x="433" 
d="M286 365l-1 -146q0 -32 20.5 -49.5t49.5 -17.5q21 0 43 4v-161q-48 -6 -88 -6q-97 0 -152.5 45.5t-54.5 136.5l1 194h-94v156h95l1 168h182l-1 -168h111v-156h-112zM247 -52q46 0 72 -32.5t26 -83.5v-1v-1q-2 -164 -177 -252v75q52 31 70 84q-41 4 -68 33.5t-27 70.5
q0 45 29.5 76t74.5 31z" />
    <glyph glyph-name="dotlessj" unicode="&#x237;" 
d="M245 521v-556q0 -116 -59.5 -173.5t-156.5 -57.5t-155 41l73 149q32 -30 63 -30q53 0 53 61v566h182z" />
    <glyph glyph-name="circumflex" unicode="&#x2c6;" horiz-adv-x="415" 
d="M410 600h-151l-52 65l-51 -65h-152l115 182h177z" />
    <glyph glyph-name="caron" unicode="&#x2c7;" horiz-adv-x="415" 
d="M296 598h-177l-115 182h152l51 -64l52 64h151z" />
    <glyph glyph-name="breve" unicode="&#x2d8;" horiz-adv-x="415" 
d="M263 774h148q0 -91 -56 -138t-148 -47t-147.5 47t-55.5 138h148q0 -28 15 -44t40 -16q26 0 41 16t15 44z" />
    <glyph glyph-name="dotaccent" unicode="&#x2d9;" horiz-adv-x="220" 
d="M109 789q45 0 76 -31.5t31 -75.5t-31 -74.5t-76 -30.5q-44 0 -74.5 30.5t-30.5 74.5t31 75.5t74 31.5z" />
    <glyph glyph-name="ring" unicode="&#x2da;" horiz-adv-x="291" 
d="M146 838q59 0 100 -37.5t41 -93.5q0 -57 -41 -94.5t-100 -37.5q-60 0 -101 37.5t-41 94.5q0 56 41 93.5t101 37.5zM146 745q-18 0 -28.5 -10.5t-10.5 -27.5t10.5 -28t28.5 -11q17 0 27.5 11t10.5 28t-10.5 27.5t-27.5 10.5z" />
    <glyph glyph-name="ogonek" unicode="&#x2db;" horiz-adv-x="236" 
d="M172 43l29 -39q-33 -20 -47.5 -35t-14.5 -36q0 -29 32 -29q23 0 45 11l16 -87q-43 -19 -93 -19q-60 0 -98 25.5t-38 76.5t44 81.5t125 50.5z" />
    <glyph glyph-name="tilde" unicode="&#x2dc;" horiz-adv-x="398" 
d="M123 776q35 0 74.5 -24.5t56.5 -24.5q37 0 37 42h102q7 -72 -26 -125t-92 -53q-37 0 -76 24.5t-55 24.5q-37 0 -37 -42h-102q-7 72 26 125t92 53z" />
    <glyph glyph-name="hungarumlaut" unicode="&#x2dd;" horiz-adv-x="464" 
d="M146 600h-142l62 193h172zM368 600h-142l62 193h172z" />
    <glyph glyph-name="uni0326" unicode="&#x326;" horiz-adv-x="0" 
d="M236 -161v-1q-2 -165 -177 -252v75q53 32 70 83q-41 4 -68 34t-27 71q0 45 29.5 76t74.5 31q46 0 72 -32.5t26 -83.5v-1z" />
    <glyph glyph-name="Omega" unicode="&#x3a9;" horiz-adv-x="807" 
d="M404 730q152 0 244 -99.5t92 -248.5q0 -75 -25 -139.5t-63 -103.5h135v-139h-327v129q58 35 92.5 104t34.5 142q0 96 -49.5 155.5t-133.5 59.5q-85 0 -134.5 -59t-49.5 -156q0 -73 34.5 -142t91.5 -104v-129h-326v139h135q-38 38 -62.5 103t-24.5 140q0 150 91.5 249
t244.5 99z" />
    <glyph glyph-name="mu" unicode="&#x3bc;" horiz-adv-x="614" 
d="M551 521v-521h-172v36q-38 -47 -122 -47h-12v-244h-182v776h182v-289q0 -39 13.5 -56t46.5 -17q64 0 64 71v291h182z" />
    <glyph glyph-name="pi" unicode="&#x3c0;" horiz-adv-x="758" 
d="M598 535l140 -81q-16 -65 -58.5 -108t-117.5 -43l-16 -132q-4 -29 16 -29q10 0 31 14l80 -106q-53 -59 -138 -59q-74 0 -108 45t-25 123l16 144h-75l-23 -178q-8 -67 -38 -125h-170l15.5 32t15.5 33t11 26.5t11 31.5t6 30l19 150h-3q-52 0 -85 -52l-83 124q44 47 86.5 68
t117.5 21h247q59 0 85 17t43 54z" />
    <glyph glyph-name="Wgrave" unicode="&#x1e80;" horiz-adv-x="1129" 
d="M640 795h-164l-199 162h248zM861 0h-163l-134 413l-134 -413h-162l-261 748h212l132 -430l134 430h159l133 -430l133 430h212z" />
    <glyph glyph-name="wgrave" unicode="&#x1e81;" horiz-adv-x="862" 
d="M500 600h-142l-137 191h206zM660 0h-145l-83 218l-84 -218h-146l-201 521h203l77 -258l86 258h128l86 -258l77 258h203z" />
    <glyph glyph-name="Wacute" unicode="&#x1e82;" horiz-adv-x="1129" 
d="M646 795h-164l116 162h247zM861 0h-163l-134 413l-134 -413h-162l-261 748h212l132 -430l134 430h159l133 -430l133 430h212z" />
    <glyph glyph-name="wacute" unicode="&#x1e83;" horiz-adv-x="862" 
d="M502 600h-142l73 191h206zM660 0h-145l-83 218l-84 -218h-146l-201 521h203l77 -258l86 258h128l86 -258l77 258h203z" />
    <glyph glyph-name="Wdieresis" unicode="&#x1e84;" horiz-adv-x="1129" 
d="M456 980q40 0 68 -28t28 -68t-27.5 -67.5t-68.5 -27.5q-40 0 -67.5 27.5t-27.5 67.5t27.5 68t67.5 28zM675 980q40 0 68.5 -28t28.5 -68t-28 -67.5t-69 -27.5q-40 0 -67.5 27.5t-27.5 67.5t27.5 68t67.5 28zM861 0h-163l-134 413l-134 -413h-162l-261 748h212l132 -430
l134 430h159l133 -430l133 430h212z" />
    <glyph glyph-name="wdieresis" unicode="&#x1e85;" horiz-adv-x="862" 
d="M323 773q40 0 68 -27.5t28 -67.5t-27.5 -68t-68.5 -28q-40 0 -67.5 28t-27.5 68t27.5 67.5t67.5 27.5zM542 773q41 0 69 -27.5t28 -67.5t-28 -68t-69 -28q-40 0 -67.5 28t-27.5 68t27.5 67.5t67.5 27.5zM660 0h-145l-83 218l-84 -218h-146l-201 521h203l77 -258l86 258
h128l86 -258l77 258h203z" />
    <glyph glyph-name="Ygrave" unicode="&#x1ef2;" horiz-adv-x="776" 
d="M463 795h-164l-199 162h248zM485 274v-274h-193v274l-284 474h224l156 -282l156 282h224z" />
    <glyph glyph-name="ygrave" unicode="&#x1ef3;" horiz-adv-x="599" 
d="M365 600h-142l-137 191h206zM262 -255h-199l139 312l-201 464h202l97 -260l96 260h202z" />
    <glyph glyph-name="endash" unicode="&#x2013;" horiz-adv-x="568" 
d="M523 177h-478v171h478v-171z" />
    <glyph glyph-name="emdash" unicode="&#x2014;" horiz-adv-x="800" 
d="M755 177h-710v171h710v-171z" />
    <glyph glyph-name="quoteleft" unicode="&#x2018;" horiz-adv-x="250" 
d="M142 633q40 -4 67 -34t27 -71q0 -45 -29 -75.5t-74 -30.5q-46 0 -72 32t-26 83v1v1q2 166 176 252v-75q-54 -33 -69 -83z" />
    <glyph glyph-name="quoteright" unicode="&#x2019;" horiz-adv-x="250" 
d="M216 674v-1q-2 -164 -177 -251v74q53 33 69 84q-40 4 -67 33.5t-27 71.5q0 45 29 75.5t74 30.5q46 0 72.5 -32t26.5 -84v-1z" />
    <glyph glyph-name="quotesinglbase" unicode="&#x201a;" horiz-adv-x="250" 
d="M216 84v-1q-2 -164 -177 -252v75q53 33 69 84q-40 4 -67 33.5t-27 71.5q0 44 29 75t74 31q46 0 72.5 -32.5t26.5 -83.5v-1z" />
    <glyph glyph-name="quotedblleft" unicode="&#x201c;" horiz-adv-x="485" 
d="M142 633q41 -4 68 -33.5t27 -70.5q0 -45 -29.5 -76t-74.5 -31q-46 0 -72 32.5t-26 83.5v1v1q2 164 177 252v-75q-53 -31 -70 -84zM377 633q41 -4 68 -33.5t27 -70.5q0 -45 -29.5 -76t-74.5 -31q-46 0 -72 32.5t-26 83.5v1v1q2 164 177 252v-75q-53 -31 -70 -84z" />
    <glyph glyph-name="quotedblright" unicode="&#x201d;" horiz-adv-x="485" 
d="M118 791q46 0 72 -32.5t26 -83.5v-1v-1q-2 -164 -177 -252v75q53 32 70 84q-41 4 -68 33.5t-27 71.5q0 44 29.5 75t74.5 31zM451 674v-1q-2 -164 -177 -252v75q52 32 70 84q-41 4 -68 33.5t-27 71.5q0 44 29.5 75t74.5 31q46 0 72 -32.5t26 -84.5z" />
    <glyph glyph-name="quotedblbase" unicode="&#x201e;" horiz-adv-x="485" 
d="M117 201q46 0 72.5 -32.5t26.5 -83.5v-1v-1q-2 -164 -177 -252v75q53 33 69 84q-40 4 -67 33.5t-27 71.5q0 44 29 75t74 31zM451 84v-1q-2 -164 -177 -252v75q52 32 70 84q-41 4 -68 33.5t-27 71.5q0 44 29 75t75 31t72 -32.5t26 -84.5z" />
    <glyph glyph-name="dagger" unicode="&#x2020;" horiz-adv-x="560" 
d="M371 565h174v-164h-174v-468h-182v468h-174v164h174v183h182v-183z" />
    <glyph glyph-name="daggerdbl" unicode="&#x2021;" horiz-adv-x="560" 
d="M371 565h174v-164h-174v-121h174v-164h-174v-183h-182v183h-174v164h174v121h-174v164h174v183h182v-183z" />
    <glyph glyph-name="bullet" unicode="&#x2022;" horiz-adv-x="349" 
d="M175 385q53 0 91.5 -38.5t38.5 -91.5q0 -54 -38.5 -92.5t-91.5 -38.5q-54 0 -92.5 38.5t-38.5 92.5q0 53 38.5 91.5t92.5 38.5z" />
    <glyph glyph-name="ellipsis" unicode="&#x2026;" horiz-adv-x="874" 
d="M140 201q44 0 75 -31t31 -75q0 -45 -31 -75.5t-75 -30.5t-75 30.5t-31 75.5q0 44 31 75t75 31zM426 201q44 0 75.5 -31t31.5 -75q0 -45 -31 -75.5t-76 -30.5q-44 0 -75 30.5t-31 75.5q0 44 31 75t75 31zM712 201q44 0 75.5 -31t31.5 -75q0 -45 -31 -75.5t-76 -30.5
q-44 0 -74.5 30.5t-30.5 75.5q0 44 30.5 75t74.5 31z" />
    <glyph glyph-name="perthousand" unicode="&#x2030;" horiz-adv-x="1329" 
d="M212 759q81 0 132 -53.5t51 -139.5q0 -87 -51 -140.5t-132 -53.5t-133 53.5t-52 140.5q0 86 52 139.5t133 53.5zM314 0h-175l472 748h175zM212 633q-52 0 -52 -67q0 -32 14 -50t38 -18q50 0 50 68q0 67 -50 67zM714 376q81 0 132 -53t51 -140t-51 -140.5t-132 -53.5
t-133 53.5t-52 140.5t52 140t133 53zM1118 376q81 0 132.5 -53t51.5 -140t-51.5 -140.5t-132.5 -53.5t-133 53.5t-52 140.5t52 140t133 53zM714 250q-52 0 -52 -67q0 -32 14 -50t38 -18q50 0 50 68q0 67 -50 67zM1118 250q-51 0 -51 -67q0 -32 13.5 -50t37.5 -18q50 0 50 68
q0 67 -50 67z" />
    <glyph glyph-name="guilsinglleft" unicode="&#x2039;" horiz-adv-x="357" 
d="M342 387l-108 -127l108 -126l-130 -114l-197 240l197 241z" />
    <glyph glyph-name="guilsinglright" unicode="&#x203a;" horiz-adv-x="357" 
d="M342 260l-197 -240l-130 114l108 126l-108 127l130 114z" />
    <glyph glyph-name="fraction" unicode="&#x2044;" horiz-adv-x="237" 
d="M-36 0h-185l494 748h185z" />
    <glyph glyph-name="Euro" unicode="&#x20ac;" horiz-adv-x="706" 
d="M602 208l80 -161q-54 -31 -102 -44.5t-119 -13.5q-112 0 -200.5 64t-124.5 181h-125l42 112h65l-1 28v21h-106l42 113h82q34 120 124.5 185.5t204.5 65.5q67 0 111.5 -14.5t92.5 -47.5l-60 -159q-59 50 -136 50q-91 0 -131 -80h257l-42 -113h-242v-21q0 -19 1 -28h223
l-41 -112h-153q41 -74 128 -74q71 0 130 48z" />
    <glyph glyph-name="trademark" unicode="&#x2122;" horiz-adv-x="903" 
d="M362 619h-108v-230h-133v230h-107v129h348v-129zM849 389h-134v113l-55 -108h-60l-55 108v-113h-133v359h114l104 -197l105 197h114v-359z" />
    <glyph glyph-name="estimated" unicode="&#x212e;" horiz-adv-x="598" 
d="M311 542q112 0 182.5 -68t70.5 -196h-369v-180q0 -49 40 -66q23 -9 76 -9q139 0 216 126l32 -21q-43 -67 -107 -104.5t-141 -37.5q-120 0 -198.5 76.5t-78.5 200.5q0 126 78 202.5t199 76.5zM311 505q-49 0 -79 -12q-37 -15 -37 -65v-114h222v112q0 31 -6.5 46t-29.5 23
q-35 10 -70 10z" />
    <glyph glyph-name="partialdiff" unicode="&#x2202;" horiz-adv-x="615" 
d="M279 759q300 0 300 -419q0 -171 -72.5 -261t-200.5 -90q-119 0 -194.5 70t-75.5 187q0 109 71 174t185 65q52 0 95 -20q-3 71 -29 97t-73 26q-71 0 -126 -53l-102 159q103 65 222 65zM309 160q35 0 56.5 23.5t21.5 60.5v10q-2 37 -23 59t-55 22t-55 -23.5t-21 -62.5
q0 -41 20 -65t56 -24z" />
    <glyph glyph-name="product" unicode="&#x220f;" horiz-adv-x="672" 
d="M658 577h-91v-741h-165v741h-132v-741h-165v741h-91v171h644v-171z" />
    <glyph glyph-name="summation" unicode="&#x2211;" horiz-adv-x="600" 
d="M562 577h-295l151 -203l-151 -203h295v-171h-516v142l172 232l-172 232v142h516v-171z" />
    <glyph glyph-name="minus" unicode="&#x2212;" horiz-adv-x="548" 
d="M518 286h-488v171h488v-171z" />
    <glyph glyph-name="radical" unicode="&#x221a;" horiz-adv-x="702" 
d="M689 629l-326 -706l-160 307l-100 -61l-89 143l257 156l87 -176l182 401z" />
    <glyph glyph-name="infinity" unicode="&#x221e;" horiz-adv-x="771" 
d="M543 513q86 0 142 -61t56 -149q0 -89 -56 -150.5t-142 -61.5q-92 0 -165 79l-8 9l-9 -8q-75 -66 -151 -66q-80 0 -130 56.5t-50 140.5t50.5 141.5t129.5 57.5q47 0 80.5 -18t69.5 -53l7 -6l6 6q42 41 79 62t91 21zM543 359q-32 0 -74 -45l-9 -12l9 -11q46 -46 74 -46
q22 0 34 16.5t12 41.5q0 24 -12 40t-34 16zM214 353q-20 0 -31 -14.5t-11 -36.5q0 -21 11 -35.5t31 -14.5q38 0 63 38l7 11l-7 7q-39 45 -63 45z" />
    <glyph glyph-name="integral" unicode="&#x222b;" horiz-adv-x="335" 
d="M231 759q63 0 121 -20l-30 -138q-30 11 -52 11q-10 0 -17 -7t-7 -17v-595q0 -78 -37.5 -121t-105.5 -43q-67 0 -120 21l30 137q31 -11 45 -11q12 0 21 7t9 16v595q0 78 37.5 121.5t105.5 43.5z" />
    <glyph glyph-name="approxequal" unicode="&#x2248;" horiz-adv-x="549" 
d="M464 605l81 -121q-72 -98 -167 -98q-40 0 -97.5 27t-90.5 27q-65 0 -105 -49l-81 121q74 98 167 98q41 0 99 -27.5t89 -27.5q64 0 105 50zM464 352l81 -121q-73 -98 -167 -98q-40 0 -97.5 27.5t-90.5 27.5q-64 0 -105 -50l-81 121q72 98 167 98q41 0 99 -27t89 -27
q65 0 105 49z" />
    <glyph glyph-name="notequal" unicode="&#x2260;" horiz-adv-x="548" 
d="M364 410l-17 -78h171v-170h-208l-24 -112l-155 36l16 76h-117v170h154l17 78h-171v171h208l23 108l156 -35l-16 -73h117v-171h-154z" />
    <glyph glyph-name="lessequal" unicode="&#x2264;" horiz-adv-x="550" 
d="M521 544l-127 -59l127 -59v-188l-491 247l491 245v-186zM521 31h-491v171h491v-171z" />
    <glyph glyph-name="greaterequal" unicode="&#x2265;" horiz-adv-x="550" 
d="M520 485l-490 -247v188l127 59l-127 59v186zM520 31h-490v171h490v-171z" />
    <glyph glyph-name="lozenge" unicode="&#x25ca;" horiz-adv-x="572" 
d="M548 346l-203 -401h-117l-204 401l204 402h117zM214 346l72 -143l73 143l-73 142z" />
    <glyph glyph-name="fl" unicode="&#xfb02;" horiz-adv-x="711" 
d="M328 784q35 0 58 -4v-157q-15 3 -37 3q-33 0 -54.5 -19t-21.5 -48v-38h113v-156h-113v-365h-183v365h-89v156h89v34q0 103 65.5 166t172.5 63zM648 0h-182v777h182v-777z" />
    <glyph glyph-name="n.001" horiz-adv-x="624" 
d="M362 532q93 0 148.5 -55t55.5 -154v-323h-182v281q0 81 -68 81q-33 0 -52 -21.5t-19 -60.5v-280h-182v521h172v-35q39 46 127 46z" />
    <glyph glyph-name="germandbls.cap" horiz-adv-x="712" 
d="M344 756q181 0 288 -121l-107 -179q70 -31 110 -81t40 -131q0 -115 -78 -183.5t-205 -68.5q-60 0 -109 11l37 170q27 -10 64 -10q39 0 65.5 25t26.5 67q0 58 -40.5 85t-125.5 46l96 175q-26 24 -70 24q-37 0 -61 -23t-24 -65v-497h-193v495q0 119 80.5 190t205.5 71z" />
    <glyph glyph-name="a.sups" horiz-adv-x="466" 
d="M229 757q195 0 195 -171v-257h-154v21q-36 -30 -99 -30q-69 0 -107.5 32t-38.5 93q0 35 15 60t43.5 38.5t59 20.5t71.5 9l47 3v22q0 15 -8.5 24.5t-22.5 9.5q-36 0 -36 -37l-159 5q0 60 54 108.5t140 48.5zM261 485l-34 -2q-38 -3 -38 -28q0 -22 29 -22q18 0 30.5 9.5
t12.5 23.5v19z" />
    <glyph glyph-name="b.sups" horiz-adv-x="532" 
d="M209 951v-211q51 17 91 17q91 0 147 -61t56 -157q0 -97 -56 -158t-147 -61q-51 0 -101 26v-17h-153v622h163zM273 619q-29 0 -46.5 -21t-17.5 -53v-13q0 -31 17.5 -52t46.5 -21q32 0 49 21t17 59q0 37 -17.5 58.5t-48.5 21.5z" />
    <glyph glyph-name="c.sups" horiz-adv-x="486" 
d="M252 757q80 0 137 -45t70 -122l-158 -13q-7 42 -49 42q-27 0 -42.5 -21.5t-15.5 -58.5q0 -38 15.5 -59t42.5 -21q42 0 49 43l158 -13q-12 -78 -69.5 -123.5t-137.5 -45.5q-99 0 -161 59t-62 160q0 100 62.5 159t160.5 59z" />
    <glyph glyph-name="d.sups" horiz-adv-x="533" 
d="M486 329h-154v17q-47 -26 -100 -26q-91 0 -147 61t-56 158q0 96 56 157t147 61q42 0 91 -17v211h163v-622zM259 619q-31 0 -48 -21.5t-17 -58.5q0 -38 17 -59t48 -21q29 0 46.5 20.5t17.5 52.5v13q0 32 -17.5 53t-46.5 21z" />
    <glyph glyph-name="e.sups" horiz-adv-x="485" 
d="M456 494h-254q0 -49 46 -49q33 0 40 24l164 -8q-10 -63 -66.5 -102t-132.5 -39q-102 0 -163 59.5t-61 159.5t60.5 159t159.5 59q93 0 150 -55.5t57 -156.5v-51zM247 638q-43 0 -45 -49h89q-3 49 -44 49z" />
    <glyph glyph-name="f.sups" horiz-adv-x="327" 
d="M271 957q29 0 50 -4v-139q-8 2 -32 2q-23 0 -39.5 -13.5t-16.5 -32.5v-22h88v-139h-88v-280h-162v280h-70v139h70v19q0 85 55 137.5t145 52.5z" />
    <glyph glyph-name="g.sups" horiz-adv-x="528" 
d="M232 757q53 0 100 -26v17h154v-427q0 -91 -60.5 -147.5t-161.5 -56.5q-105 0 -161 45.5t-66 126.5l161 6q0 -41 59 -41q66 0 66 56v28q-47 -18 -91 -18q-91 0 -147 61t-56 158q0 96 56 157t147 61zM259 619q-31 0 -48 -21.5t-17 -58.5q0 -38 17 -59t48 -21
q29 0 46.5 20.5t17.5 52.5v13q0 32 -17.5 53t-46.5 21z" />
    <glyph glyph-name="h.sups" horiz-adv-x="502" 
d="M209 951v-216q34 22 86 22q76 0 120.5 -44t44.5 -124v-260h-163v222q0 55 -43 55q-45 0 -45 -56v-221h-163v622h163z" />
    <glyph glyph-name="i.sups" horiz-adv-x="255" 
d="M128 966q39 0 66 -27.5t27 -67.5q0 -38 -27 -65t-66 -27t-66.5 27t-27.5 65q0 39 28 67t66 28zM209 329h-163v419h163v-419z" />
    <glyph glyph-name="j.sups" horiz-adv-x="255" 
d="M127 966q40 0 67 -27.5t27 -67.5q0 -38 -27 -65t-67 -27q-39 0 -66 27t-27 65q0 40 27 67.5t66 27.5zM209 748v-439q0 -85 -56 -138t-146 -53q-27 0 -50 3v141q12 -3 32 -3q24 0 40.5 14t16.5 33v442h163z" />
    <glyph glyph-name="k.sups" horiz-adv-x="500" 
d="M209 631l89 117h196l-140 -176l143 -243h-191l-67 121l-30 -36v-85h-163v622h163v-320z" />
    <glyph glyph-name="l.sups" horiz-adv-x="255" 
d="M209 329h-163v622h163v-622z" />
    <glyph glyph-name="m.sups" horiz-adv-x="740" 
d="M536 757q75 0 118.5 -43.5t43.5 -124.5v-260h-162v222q0 55 -40 55q-42 0 -42 -56v-221h-162v222q0 55 -41 55q-42 0 -42 -56v-221h-163v419h153v-20q31 29 93 29q83 0 127 -52q42 52 117 52z" />
    <glyph glyph-name="n.sups" horiz-adv-x="502" 
d="M295 757q76 0 120.5 -44t44.5 -124v-260h-163v222q0 55 -43 55q-45 0 -45 -56v-221h-163v419h153v-20q31 29 96 29z" />
    <glyph glyph-name="o.sups" horiz-adv-x="517" 
d="M258 757q102 0 166 -60.5t64 -157.5q0 -98 -64 -158.5t-166 -60.5q-101 0 -165 60.5t-64 158.5q0 97 64 157.5t165 60.5zM258 619q-31 0 -47.5 -21t-16.5 -59t16.5 -59t47.5 -21t48.5 21t17.5 59t-17.5 59t-48.5 21z" />
    <glyph glyph-name="p.sups" horiz-adv-x="532" 
d="M300 757q91 0 147 -61t56 -157q0 -97 -56 -158t-147 -61q-44 0 -91 18v-213h-163v623h153v-17q50 26 101 26zM273 619q-29 0 -46.5 -21t-17.5 -53v-13q0 -31 17.5 -52t46.5 -21q32 0 49 21t17 59q0 37 -17.5 58.5t-48.5 21.5z" />
    <glyph glyph-name="q.sups" horiz-adv-x="532" 
d="M232 757q53 0 100 -26v17h154v-623h-163v213q-45 -18 -91 -18q-91 0 -147 61t-56 158q0 96 56 157t147 61zM259 619q-31 0 -48 -21.5t-17 -58.5q0 -38 17 -59t48 -21q29 0 46.5 20.5t17.5 52.5v13q0 32 -17.5 53t-46.5 21z" />
    <glyph glyph-name="r.sups" horiz-adv-x="325" 
d="M311 752v-157q-48 0 -75 -21t-27 -59v-186h-163v419h157v-31q35 35 108 35z" />
    <glyph glyph-name="s.sups" horiz-adv-x="410" 
d="M203 757q86 0 133 -38t52 -102l-162 -10q2 36 -23 36q-19 0 -19 -15q0 -11 13.5 -17t52.5 -17q69 -19 104 -45.5t35 -79.5q0 -68 -47.5 -108.5t-136.5 -40.5q-179 0 -190 141l163 9q-6 -36 27 -36q22 0 22 17q0 18 -51 30q-84 23 -119.5 49t-35.5 87q0 65 49 102.5
t133 37.5z" />
    <glyph glyph-name="t.sups" horiz-adv-x="353" 
d="M247 609l-1 -97q0 -23 15.5 -35t36.5 -12q7 0 34 3v-144q-52 -5 -74 -5q-81 0 -128.5 38t-46.5 112l1 140h-75v139h76l1 133h163l-1 -133h84v-139h-85z" />
    <glyph glyph-name="u.sups" horiz-adv-x="491" 
d="M445 329h-153v20q-33 -29 -93 -29q-75 0 -116 41t-41 118v269h163v-229q0 -27 8 -37.5t29 -10.5q40 0 40 47v230h163v-419z" />
    <glyph glyph-name="v.sups" horiz-adv-x="491" 
d="M309 329h-127l-182 419h177l68 -167l68 167h177z" />
    <glyph glyph-name="w.sups" horiz-adv-x="701" 
d="M539 329h-127l-61 191l-62 -191h-127l-162 419h177l59 -176l58 176h113l58 -176l59 176h177z" />
    <glyph glyph-name="x.sups" horiz-adv-x="471" 
d="M346 538l119 -209h-180l-50 98l-48 -98h-180l118 208l-121 211h179l52 -102l53 102h179z" />
    <glyph glyph-name="y.sups" horiz-adv-x="491" 
d="M221 125h-177l113 261l-157 362h177l68 -167l68 167h177z" />
    <glyph glyph-name="z.sups" horiz-adv-x="375" 
d="M343 636l-128 -177h132v-130h-319v112l128 176h-125v131h312v-112z" />
    <glyph glyph-name="zero.onum" horiz-adv-x="657" 
d="M328 601q131 0 212.5 -83t81.5 -222q0 -140 -81.5 -223.5t-212.5 -83.5q-130 0 -211.5 83.5t-81.5 223.5q0 139 81.5 222t211.5 83zM328 430q-43 0 -68.5 -35t-25.5 -99t25.5 -100t68.5 -36q44 0 69.5 35.5t25.5 100.5q0 64 -25.5 99t-69.5 35z" />
    <glyph glyph-name="one.onum" horiz-adv-x="406" 
d="M340 0h-193v354l-74 -47l-81 153l206 130h142v-590z" />
    <glyph glyph-name="two.onum" horiz-adv-x="546" 
d="M279 601q117 0 178 -58t61 -155q0 -110 -112 -187l-46 -30h160v-171h-476v147l201 131q42 27 60.5 50.5t18.5 55.5q0 46 -41 46q-44 0 -46 -66l-193 11q1 106 64.5 166t170.5 60z" />
    <glyph glyph-name="three.onum" horiz-adv-x="575" 
d="M285 601q115 0 178.5 -61.5t63.5 -166.5q0 -52 -16 -83.5t-48 -61.5q32 -19 52.5 -60.5t20.5 -97.5q0 -112 -69.5 -175.5t-182.5 -63.5q-122 0 -187.5 62.5t-66.5 170.5l193 11q0 -73 60 -73q59 0 59 74q0 34 -18.5 52t-50.5 18h-79v161h77q28 0 45 17t17 47q0 59 -49 59
q-52 0 -52 -68l-193 11q2 108 65 168t181 60z" />
    <glyph glyph-name="four.onum" horiz-adv-x="608" 
d="M481 116h104v-171h-104v-103h-163v103h-291v159l308 486h146v-474zM212 116h106v167z" />
    <glyph glyph-name="five.onum" horiz-adv-x="577" 
d="M307 327q104 0 169 -62.5t65 -179.5t-70 -185.5t-190 -68.5q-116 0 -182 59.5t-67 159.5l193 12q0 -28 14.5 -44t42.5 -16q65 0 65 78q0 75 -59 75q-32 0 -53 -15h-178v450h454v-171h-261v-100q26 8 57 8z" />
    <glyph glyph-name="six.onum" horiz-adv-x="617" 
d="M555 748l-180 -257q93 -18 150.5 -84.5t57.5 -162.5q0 -114 -77 -184.5t-195 -70.5q-119 0 -196.5 70.5t-77.5 184.5q0 78 58 166l229 338h231zM310 160q36 0 56.5 24.5t20.5 66.5q0 43 -20.5 67t-56.5 24q-39 0 -62 -31q-15 -25 -15 -60q0 -42 20.5 -66.5t56.5 -24.5z
" />
    <glyph glyph-name="seven.onum" horiz-adv-x="541" 
d="M510 435l-256 -593h-213l257 577h-280v171h492v-155z" />
    <glyph glyph-name="eight.onum" horiz-adv-x="624" 
d="M311 759q111 0 182 -58.5t71 -158.5q0 -83 -50 -139q70 -67 70 -173q0 -111 -76.5 -176t-195.5 -65t-195.5 65t-76.5 176q0 106 68 172q-49 57 -49 140q0 100 70.5 158.5t181.5 58.5zM312 588q-26 0 -42.5 -16.5t-16.5 -44.5q0 -27 17 -44t42 -17q26 0 42.5 16.5
t16.5 44.5q0 29 -16 45t-43 16zM312 322q-35 0 -57 -22t-22 -60q0 -37 22 -58.5t57 -21.5t57 21.5t22 58.5q0 38 -22 60t-57 22z" />
    <glyph glyph-name="nine.onum" horiz-adv-x="617" 
d="M306 601q119 0 196.5 -70.5t77.5 -184.5q0 -78 -58 -166l-229 -338h-231l180 257q-93 18 -150.5 84.5t-57.5 162.5q0 114 77 184.5t195 70.5zM307 248q39 0 62 31q15 25 15 60q0 42 -20.5 66.5t-56.5 24.5t-56.5 -24.5t-20.5 -66.5q0 -43 20.5 -67t56.5 -24z" />
    <glyph glyph-name="zero.slash" horiz-adv-x="656" 
d="M327 759q131 0 212 -101.5t81 -283.5t-81 -283.5t-212 -101.5q-130 0 -211 101.5t-81 283.5t81 283.5t211 101.5zM327 588q-51 0 -73 -52.5t-22 -161.5q0 -36 1 -52l128 259q-14 7 -34 7zM327 160q52 0 74 52.5t22 161.5q0 9 -0.5 25.5t-0.5 23.5l-127 -257q13 -6 32 -6z
" />
    <glyph glyph-name="zero.subs" horiz-adv-x="373" 
d="M187 338q74 0 121 -56t47 -156t-47 -156.5t-121 -56.5t-121.5 56.5t-47.5 156.5t47.5 156t121.5 56zM187 214q-17 0 -21.5 -19.5t-4.5 -68.5q0 -50 4.5 -69.5t21.5 -19.5t21.5 19.5t4.5 69.5q0 49 -4.5 68.5t-21.5 19.5z" />
    <glyph glyph-name="one.subs" horiz-adv-x="241" 
d="M218 -80h-139v229l-32 -17l-59 113l143 86h87v-411z" />
    <glyph glyph-name="two.subs" horiz-adv-x="323" 
d="M156 338q73 0 110.5 -38t37.5 -100t-57 -128l-23 -28h79v-124h-288v96l131 142q18 21 18 44q0 12 -5 12q-8 0 -8 -17l-136 8q1 62 39.5 97.5t101.5 35.5z" />
    <glyph glyph-name="three.subs" horiz-adv-x="333" 
d="M163 338q70 0 106.5 -34t36.5 -96q0 -45 -33 -76q35 -26 35 -83q0 -64 -40.5 -100t-105.5 -36q-71 0 -109 36t-37 97l141 9q-3 -18 4 -18q8 0 8 17q0 20 -13 20h-46v108h44q7 0 12 4.5t5 12.5q0 15 -8 15q-7 0 -6 -15l-136 8q-1 62 35.5 96.5t106.5 34.5z" />
    <glyph glyph-name="four.subs" horiz-adv-x="354" 
d="M306 89h33v-123h-33v-46h-139v46h-155v108l160 257h134v-242zM132 89h35v56z" />
    <glyph glyph-name="five.subs" horiz-adv-x="325" 
d="M171 195h8q58 0 95 -34t37 -102q0 -69 -41 -107.5t-110 -38.5q-67 0 -105.5 33.5t-37.5 89.5l139 9q-2 -8 5 -8q10 0 10 18q0 16 -9 16q-2 0 -8 -3h-123v263h263v-124h-123v-12z" />
    <glyph glyph-name="six.subs" horiz-adv-x="357" 
d="M336 331l-95 -140q44 -16 69.5 -51t25.5 -82q0 -65 -44.5 -105t-112.5 -40t-113 40.5t-45 104.5q0 44 34 94l112 179h169zM178 37q17 0 17 26q0 25 -17 25q-5 0 -8 -3l-4 -6q-3 -9 -3 -16q0 -26 15 -26z" />
    <glyph glyph-name="seven.subs" horiz-adv-x="316" 
d="M293 222l-115 -302h-154l110 287h-120v124h279v-109z" />
    <glyph glyph-name="eight.subs" horiz-adv-x="359" 
d="M178 338q65 0 107 -34t42 -92q0 -39 -23 -70q35 -38 35 -90q0 -64 -45 -101.5t-115 -37.5q-69 0 -114 37.5t-45 101.5q0 51 34 89q-23 32 -23 71q0 58 41.5 92t105.5 34zM179 214q-7 0 -12 -6t-5 -16q0 -9 5.5 -15.5t11.5 -6.5q17 0 17 22t-17 22zM179 86q-8 0 -14 -7
t-6 -18t6 -17.5t14 -6.5q20 0 20 24q0 25 -20 25z" />
    <glyph glyph-name="nine.subs" horiz-adv-x="357" 
d="M177 338q69 0 114 -40t45 -105q0 -44 -34 -94l-112 -179h-169l95 140q-43 15 -69 50.5t-26 82.5q0 65 44 105t112 40zM178 163q6 0 9 3l4 6q3 9 3 16q0 26 -16 26t-16 -26q0 -25 16 -25z" />
    <glyph glyph-name="zero.sups" horiz-adv-x="373" 
d="M187 820q74 0 121 -56t47 -156t-47 -156.5t-121 -56.5t-121.5 56.5t-47.5 156.5t47.5 156t121.5 56zM187 696q-17 0 -21.5 -19.5t-4.5 -68.5q0 -50 4.5 -69.5t21.5 -19.5t21.5 19.5t4.5 69.5q0 49 -4.5 68.5t-21.5 19.5z" />
    <glyph glyph-name="one.sups" horiz-adv-x="241" 
d="M218 402h-139v229l-32 -17l-59 113l143 86h87v-411z" />
    <glyph glyph-name="two.sups" horiz-adv-x="323" 
d="M156 820q73 0 110.5 -38t37.5 -100q0 -61 -57 -128l-23 -28h79v-124h-288v96l131 142q18 21 18 44q0 12 -5 12q-8 0 -8 -17l-136 8q1 62 39.5 97.5t101.5 35.5z" />
    <glyph glyph-name="three.sups" horiz-adv-x="333" 
d="M163 820q70 0 106.5 -34t36.5 -96q0 -45 -33 -76q35 -26 35 -83q0 -64 -40.5 -100t-105.5 -36q-71 0 -109 36t-37 97l141 9q-3 -18 4 -18q8 0 8 17q0 20 -13 20h-46v108h44q7 0 12 4.5t5 12.5q0 15 -8 15q-7 0 -6 -15l-136 8q-1 62 35.5 96.5t106.5 34.5z" />
    <glyph glyph-name="four.sups" horiz-adv-x="354" 
d="M306 571h33v-123h-33v-46h-139v46h-155v108l160 257h134v-242zM132 571h35v56z" />
    <glyph glyph-name="five.sups" horiz-adv-x="325" 
d="M171 677h8q58 0 95 -34t37 -102q0 -69 -41 -107.5t-110 -38.5q-67 0 -105.5 33.5t-37.5 89.5l139 9q-2 -8 5 -8q10 0 10 18q0 16 -9 16q-2 0 -8 -3h-123v263h263v-124h-123v-12z" />
    <glyph glyph-name="six.sups" horiz-adv-x="357" 
d="M336 813l-95 -140q44 -16 69.5 -51t25.5 -82q0 -65 -44.5 -105t-112.5 -40t-113 40.5t-45 104.5q0 44 34 94l112 179h169zM178 519q17 0 17 26q0 25 -17 25q-5 0 -8 -3l-4 -6q-3 -9 -3 -16q0 -26 15 -26z" />
    <glyph glyph-name="seven.sups" horiz-adv-x="316" 
d="M293 704l-115 -302h-154l110 287h-120v124h279v-109z" />
    <glyph glyph-name="eight.sups" horiz-adv-x="359" 
d="M178 820q65 0 107 -34t42 -92q0 -39 -23 -70q35 -38 35 -90q0 -64 -45 -101.5t-115 -37.5q-69 0 -114 37.5t-45 101.5q0 51 34 89q-23 32 -23 71q0 58 41.5 92t105.5 34zM179 696q-7 0 -12 -6t-5 -16q0 -9 5.5 -15.5t11.5 -6.5q17 0 17 22t-17 22zM179 568q-8 0 -14 -7
t-6 -18t6 -17.5t14 -6.5q20 0 20 24q0 25 -20 25z" />
    <glyph glyph-name="nine.sups" horiz-adv-x="357" 
d="M177 820q69 0 114 -40t45 -105q0 -44 -34 -94l-112 -179h-169l95 140q-43 15 -69 50.5t-26 82.5q0 65 44 105t112 40zM178 645q6 0 9 3l4 6q3 9 3 16q0 26 -16 26t-16 -26q0 -25 16 -25z" />
    <glyph glyph-name="zero.tnum" horiz-adv-x="650" 
d="M324 759q131 0 212 -101.5t81 -283.5t-81 -283.5t-212 -101.5t-212 101.5t-81 283.5t81 283.5t212 101.5zM324 588q-52 0 -74 -52.5t-22 -161.5t22 -161.5t74 -52.5t74 52.5t22 161.5t-22 161.5t-74 52.5z" />
    <glyph glyph-name="one.tnum" horiz-adv-x="650" 
d="M455 171h114v-171h-439v171h132v342l-74 -48l-80 153l205 130h142v-577z" />
    <glyph glyph-name="two.tnum" horiz-adv-x="650" 
d="M331 759q114 0 176.5 -54.5t62.5 -159.5q0 -57 -21 -109t-43.5 -81.5t-62.5 -71.5l-106 -112h235v-171h-476v146l197 223q49 56 66 89t17 78q0 52 -41 52q-26 0 -35.5 -18.5t-10.5 -57.5l-193 10q2 112 63.5 174.5t171.5 62.5z" />
    <glyph glyph-name="three.tnum" horiz-adv-x="650" 
d="M326 759q115 0 178.5 -61.5t63.5 -166.5q0 -53 -16 -84.5t-47 -60.5q31 -19 52 -60.5t21 -97.5q0 -112 -69.5 -175.5t-182.5 -63.5q-122 0 -187.5 62.5t-66.5 170.5l192 11q2 -73 61 -73t59 74q0 34 -19 52t-50 18h-80v161h78q28 0 45 17t17 47q0 59 -50 59t-52 -68
l-193 11q2 108 65.5 168t180.5 60z" />
    <glyph glyph-name="four.tnum" horiz-adv-x="650" 
d="M494 274h103v-171h-103v-103h-164v103h-291v159l308 486h147v-474zM224 274h106v167z" />
    <glyph glyph-name="five.tnum" horiz-adv-x="650" 
d="M345 485q103 0 168.5 -62.5t65.5 -179.5t-70 -185.5t-190 -68.5q-116 0 -182 59.5t-67 159.5l192 12q2 -60 58 -60q32 0 48.5 20.5t16.5 57.5q0 75 -60 75q-31 0 -52 -15h-179v450h455v-171h-262v-100q26 8 58 8z" />
    <glyph glyph-name="six.tnum" horiz-adv-x="650" 
d="M570 748l-180 -257q93 -18 150.5 -84.5t57.5 -162.5q0 -114 -77 -184.5t-195 -70.5q-119 0 -196 70.5t-77 184.5q0 80 57 166l229 338h231zM325 160q36 0 56.5 24.5t20.5 66.5q0 43 -20.5 67t-56.5 24q-39 0 -62 -31q-15 -25 -15 -60q0 -42 21 -66.5t56 -24.5z" />
    <glyph glyph-name="seven.tnum" horiz-adv-x="650" 
d="M553 593l-256 -593h-212l257 577h-281v171h492v-155z" />
    <glyph glyph-name="eight.tnum" horiz-adv-x="650" 
d="M324 759q111 0 182 -58.5t71 -158.5q0 -82 -49 -139q69 -67 69 -173q0 -111 -76.5 -176t-195.5 -65t-195.5 65t-76.5 176q0 106 68 172q-49 57 -49 140q0 100 70.5 158.5t181.5 58.5zM325 588q-26 0 -42.5 -16.5t-16.5 -44.5q0 -27 17 -44t42 -17q26 0 42.5 16.5
t16.5 44.5q0 29 -16 45t-43 16zM325 322q-35 0 -57 -22t-22 -60q0 -37 22 -58.5t57 -21.5t57.5 21.5t22.5 58.5q0 38 -22.5 60t-57.5 22z" />
    <glyph glyph-name="nine.tnum" horiz-adv-x="650" 
d="M324 759q119 0 196 -70.5t77 -184.5q0 -80 -57 -166l-229 -338h-231l180 257q-93 18 -150.5 84.5t-57.5 162.5q0 114 77 184.5t195 70.5zM325 406q39 0 62 31q15 25 15 60q0 42 -21 66.5t-56 24.5q-36 0 -56.5 -24.5t-20.5 -66.5q0 -43 20.5 -67t56.5 -24z" />
    <glyph glyph-name="zero.dnom" horiz-adv-x="373" 
d="M187 418q74 0 121 -56t47 -156t-47 -156.5t-121 -56.5t-121.5 56.5t-47.5 156.5t47.5 156t121.5 56zM187 294q-17 0 -21.5 -19.5t-4.5 -68.5q0 -50 4.5 -69.5t21.5 -19.5t21.5 19.5t4.5 69.5q0 49 -4.5 68.5t-21.5 19.5z" />
    <glyph glyph-name="one.dnom" horiz-adv-x="241" 
d="M218 0h-139v229l-32 -17l-59 113l143 86h87v-411z" />
    <glyph glyph-name="two.dnom" horiz-adv-x="323" 
d="M156 418q73 0 110.5 -38t37.5 -100t-57 -128l-23 -28h79v-124h-288v96l131 142q18 21 18 44q0 12 -5 12q-8 0 -8 -17l-136 8q1 62 39.5 97.5t101.5 35.5z" />
    <glyph glyph-name="three.dnom" horiz-adv-x="333" 
d="M163 418q70 0 106.5 -34t36.5 -96q0 -45 -33 -76q35 -26 35 -83q0 -64 -40.5 -100t-105.5 -36q-71 0 -109 36t-37 97l141 9q-3 -18 4 -18q8 0 8 17q0 20 -13 20h-46v108h44q7 0 12 4.5t5 12.5q0 15 -8 15q-7 0 -6 -15l-136 8q-1 62 35.5 96.5t106.5 34.5z" />
    <glyph glyph-name="four.dnom" horiz-adv-x="354" 
d="M306 169h33v-123h-33v-46h-139v46h-155v108l160 257h134v-242zM132 169h35v56z" />
    <glyph glyph-name="five.dnom" horiz-adv-x="325" 
d="M171 275h8q58 0 95 -34t37 -102q0 -69 -41 -107.5t-110 -38.5q-67 0 -105.5 33.5t-37.5 89.5l139 9q-2 -8 5 -8q10 0 10 18q0 16 -9 16q-2 0 -8 -3h-123v263h263v-124h-123v-12z" />
    <glyph glyph-name="six.dnom" horiz-adv-x="357" 
d="M336 411l-95 -140q44 -16 69.5 -51t25.5 -82q0 -65 -44.5 -105t-112.5 -40t-113 40.5t-45 104.5q0 44 34 94l112 179h169zM178 117q17 0 17 26q0 25 -17 25q-5 0 -8 -3l-4 -6q-3 -9 -3 -16q0 -26 15 -26z" />
    <glyph glyph-name="seven.dnom" horiz-adv-x="316" 
d="M293 302l-115 -302h-154l110 287h-120v124h279v-109z" />
    <glyph glyph-name="eight.dnom" horiz-adv-x="359" 
d="M178 418q65 0 107 -34t42 -92q0 -39 -23 -70q35 -38 35 -90q0 -64 -45 -101.5t-115 -37.5q-69 0 -114 37.5t-45 101.5q0 51 34 89q-23 32 -23 71q0 58 41.5 92t105.5 34zM179 294q-7 0 -12 -6t-5 -16q0 -9 5.5 -15.5t11.5 -6.5q17 0 17 22t-17 22zM179 166q-8 0 -14 -7
t-6 -18t6 -17.5t14 -6.5q20 0 20 24q0 25 -20 25z" />
    <glyph glyph-name="nine.dnom" horiz-adv-x="357" 
d="M177 418q69 0 114 -40t45 -105q0 -44 -34 -94l-112 -179h-169l95 140q-43 15 -69 50.5t-26 82.5q0 65 44 105t112 40zM178 243q6 0 9 3l4 6q3 9 3 16q0 26 -16 26t-16 -26q0 -25 16 -25z" />
    <glyph glyph-name="zero.numr" horiz-adv-x="373" 
d="M187 739q74 0 121 -56t47 -156t-47 -156.5t-121 -56.5t-121.5 56.5t-47.5 156.5t47.5 156t121.5 56zM187 615q-17 0 -21.5 -19.5t-4.5 -68.5q0 -50 4.5 -69.5t21.5 -19.5t21.5 19.5t4.5 69.5q0 49 -4.5 68.5t-21.5 19.5z" />
    <glyph glyph-name="one.numr" horiz-adv-x="241" 
d="M218 322h-139v229l-32 -17l-59 113l143 86h87v-411z" />
    <glyph glyph-name="two.numr" horiz-adv-x="323" 
d="M156 739q73 0 110.5 -38t37.5 -100q0 -61 -57 -128l-23 -28h79v-124h-288v96l131 142q18 21 18 44q0 12 -5 12q-8 0 -8 -17l-136 8q1 62 39.5 97.5t101.5 35.5z" />
    <glyph glyph-name="three.numr" horiz-adv-x="333" 
d="M163 739q70 0 106.5 -34t36.5 -96q0 -45 -33 -76q35 -26 35 -83q0 -64 -40.5 -100t-105.5 -36q-71 0 -109 36t-37 97l141 9q-3 -18 4 -18q8 0 8 17q0 20 -13 20h-46v108h44q7 0 12 4.5t5 12.5q0 15 -8 15q-7 0 -6 -15l-136 8q-1 62 35.5 96.5t106.5 34.5z" />
    <glyph glyph-name="four.numr" horiz-adv-x="354" 
d="M306 490h33v-123h-33v-46h-139v46h-155v108l160 257h134v-242zM132 490h35v56z" />
    <glyph glyph-name="five.numr" horiz-adv-x="325" 
d="M171 597h8q58 0 95 -34t37 -102q0 -69 -41 -107.5t-110 -38.5q-67 0 -105.5 33.5t-37.5 89.5l139 9q-2 -8 5 -8q10 0 10 18q0 16 -9 16q-2 0 -8 -3h-123v263h263v-124h-123v-12z" />
    <glyph glyph-name="six.numr" horiz-adv-x="357" 
d="M336 732l-95 -140q44 -16 69.5 -51t25.5 -82q0 -65 -44.5 -105t-112.5 -40t-113 40.5t-45 104.5q0 44 34 94l112 179h169zM178 438q17 0 17 26q0 25 -17 25q-5 0 -8 -3l-4 -6q-3 -9 -3 -16q0 -26 15 -26z" />
    <glyph glyph-name="seven.numr" horiz-adv-x="316" 
d="M293 624l-115 -302h-154l110 287h-120v124h279v-109z" />
    <glyph glyph-name="eight.numr" horiz-adv-x="359" 
d="M178 739q65 0 107 -34t42 -92q0 -39 -23 -70q35 -38 35 -90q0 -64 -45 -101.5t-115 -37.5q-69 0 -114 37.5t-45 101.5q0 51 34 89q-23 32 -23 71q0 58 41.5 92t105.5 34zM179 615q-7 0 -12 -6t-5 -16q0 -9 5.5 -15.5t11.5 -6.5q17 0 17 22t-17 22zM179 487q-8 0 -14 -7
t-6 -18t6 -17.5t14 -6.5q20 0 20 24q0 25 -20 25z" />
    <glyph glyph-name="nine.numr" horiz-adv-x="357" 
d="M177 739q69 0 114 -40t45 -105q0 -44 -34 -94l-112 -179h-169l95 140q-43 15 -69 50.5t-26 82.5q0 65 44 105t112 40zM178 564q6 0 9 3l4 6q3 9 3 16q0 26 -16 26t-16 -26q0 -25 16 -25z" />
    <glyph glyph-name="periodcentered.cap" horiz-adv-x="301" 
d="M140 564q44 0 75 -31t31 -75q0 -45 -31 -75.5t-75 -30.5t-75 30.5t-31 75.5q0 44 31 75t75 31z" />
    <glyph glyph-name="exclamdown.cap" horiz-adv-x="350" 
d="M176 547q-44 0 -75.5 31.5t-31.5 75.5t31.5 74.5t75.5 30.5t74.5 -30.5t30.5 -74.5t-30.5 -75.5t-74.5 -31.5zM79 504h192l11 -504h-214z" />
    <glyph glyph-name="questiondown.cap" horiz-adv-x="555" 
d="M274 547q-44 0 -75 31.5t-31 75.5t31 74.5t75 30.5t75 -30.5t31 -74.5t-31 -75.5t-75 -31.5zM277 -13q-121 0 -191.5 62.5t-70.5 171.5q0 38 16 70.5t32.5 49t45.5 40.5q2 2 12.5 10.5l13.5 11t11 10t11 11l8.5 10t7 11.5l3.5 11.5t2 13.5v34h192v-41q0 -29 -17 -58
t-31.5 -43.5t-46.5 -42.5q-24 -23 -33 -32.5t-20 -28t-11 -34.5q0 -33 18 -49.5t48 -16.5q31 0 50.5 21.5t20.5 59.5l192 -11q-1 -109 -74 -175t-189 -66z" />
    <glyph glyph-name="braceleft.cap" horiz-adv-x="334" 
d="M315 619h-6q-42 0 -54 -22t-5 -88q9 -62 -7 -97t-72 -39q56 -4 72 -39.5t7 -97.5q-7 -66 5 -88t54 -22h6v-151h-6q-126 0 -194.5 62t-43.5 181q13 50 5.5 65t-53.5 15h-8v149h8q46 0 53.5 15t-5.5 65q-25 119 43.5 181t194.5 62h6v-151z" />
    <glyph glyph-name="braceright.cap" horiz-adv-x="334" 
d="M20 770h6q126 0 194.5 -62t42.5 -181q-13 -50 -5 -65t54 -15h8v-149h-8q-46 0 -54 -15t5 -65q26 -119 -42.5 -181t-194.5 -62h-6v151h6q42 0 53.5 22t4.5 88q-8 63 8 98t72 39q-56 4 -72 38.5t-8 97.5q7 66 -4.5 88t-53.5 22h-6v151z" />
    <glyph glyph-name="bracketleft.cap" horiz-adv-x="333" 
d="M313 619h-81v-493h81v-151h-264v795h264v-151z" />
    <glyph glyph-name="bracketright.cap" horiz-adv-x="348" 
d="M284 -25h-264v151h81v493h-81v151h264v-795z" />
    <glyph glyph-name="parenleft.cap" horiz-adv-x="324" 
d="M152 782l158 -55q-93 -174 -93 -365q0 -193 93 -365l-158 -55q-117 180 -117 420q0 238 117 420z" />
    <glyph glyph-name="parenright.cap" horiz-adv-x="318" 
d="M15 727l157 55q118 -183 118 -420q0 -239 -118 -420l-157 55q92 173 92 365q0 190 -92 365z" />
    <glyph glyph-name="emdash.cap" horiz-adv-x="800" 
d="M755 292h-710v171h710v-171z" />
    <glyph glyph-name="endash.cap" horiz-adv-x="568" 
d="M523 292h-478v171h478v-171z" />
    <glyph glyph-name="hyphen.cap" horiz-adv-x="408" 
d="M363 292h-318v171h318v-171z" />
    <glyph glyph-name="guillemotleft.cap" horiz-adv-x="612" 
d="M314 545l-97 -156l97 -155l-146 -89l-153 244l153 245zM598 545l-97 -156l97 -155l-146 -89l-153 244l153 245z" />
    <glyph glyph-name="guillemotright.cap" horiz-adv-x="612" 
d="M314 389l-154 -244l-145 89l97 155l-97 156l145 89zM597 389l-153 -244l-146 89l97 155l-97 156l146 89z" />
    <glyph glyph-name="guilsinglleft.cap" horiz-adv-x="357" 
d="M342 516l-108 -127l108 -126l-130 -114l-197 240l197 241z" />
    <glyph glyph-name="guilsinglright.cap" horiz-adv-x="357" 
d="M342 389l-197 -240l-130 114l108 126l-108 127l130 114z" />
    <glyph glyph-name="emdash_guilsinglright" horiz-adv-x="905" 
d="M870 260l-243 -279l-128 114l82 92h-536v150h532l-78 88l128 115z" />
    <glyph glyph-name="endash_guilsinglright" horiz-adv-x="630" 
d="M595 260l-243 -279l-128 114l82 92h-261v150h257l-78 88l128 115z" />
    <glyph glyph-name="guilsinglleft_emdash" horiz-adv-x="905" 
d="M406 425l-78 -88h532v-150h-536l82 -92l-128 -114l-243 279l243 280z" />
    <glyph glyph-name="guilsinglleft_endash" horiz-adv-x="630" 
d="M406 425l-78 -88h257v-150h-261l82 -92l-128 -114l-243 279l243 280z" />
    <glyph glyph-name="at.cap" horiz-adv-x="793" 
d="M599 569v-299q0 -29 29 -29q25 0 41.5 33t16.5 100q0 125 -82.5 207.5t-207.5 82.5q-126 0 -207.5 -82.5t-81.5 -207.5q0 -129 83.5 -209t197.5 -80q101 0 176 40l28 -65q-76 -43 -204 -43q-148 0 -251 100t-103 257q0 155 102 257t260 102q157 0 260 -102t103 -257
q0 -106 -44.5 -159.5t-123.5 -53.5q-78 0 -109 48q-45 -50 -118 -50q-86 0 -139.5 59.5t-53.5 153.5q0 95 53.5 154t139.5 59q66 0 104 -36v20h131zM461 365v14q0 38 -20 60.5t-54 22.5t-54 -23.5t-20 -66.5q0 -42 20 -66.5t54 -24.5t54 23t20 61z" />
    <glyph glyph-name="acute.case" horiz-adv-x="371" 
d="M168 797h-164l115 162h248z" />
    <glyph glyph-name="breve.case" horiz-adv-x="415" 
d="M263 978h148q0 -91 -56 -138t-148 -47t-147.5 47t-55.5 138h148q0 -28 15 -44t40 -16q26 0 41 16t15 44z" />
    <glyph glyph-name="caron.case" horiz-adv-x="414" 
d="M296 797h-177l-115 170h152l51 -66l52 66h151z" />
    <glyph glyph-name="circumflex.case" horiz-adv-x="414" 
d="M410 797h-151l-52 66l-51 -66h-152l115 170h177z" />
    <glyph glyph-name="dieresis.case" horiz-adv-x="418" 
d="M99 982q40 0 68 -28t28 -68t-27.5 -67.5t-68.5 -27.5q-40 0 -67.5 27.5t-27.5 67.5t27.5 68t67.5 28zM318 982q40 0 68.5 -28t28.5 -68t-28 -67.5t-69 -27.5q-40 0 -67.5 27.5t-27.5 67.5t27.5 68t67.5 28z" />
    <glyph glyph-name="dotaccent.case" horiz-adv-x="220" 
d="M109 1005q45 0 76 -31.5t31 -75.5t-31 -74.5t-76 -30.5q-44 0 -74.5 30.5t-30.5 74.5t31 75.5t74 31.5z" />
    <glyph glyph-name="grave.case" horiz-adv-x="371" 
d="M367 797h-164l-199 162h248z" />
    <glyph glyph-name="hungarumlaut.case" horiz-adv-x="464" 
d="M146 800h-142l62 182h172zM368 800h-142l62 182h172z" />
    <glyph glyph-name="macron.case" horiz-adv-x="331" 
d="M327 805h-323v139h323v-139z" />
    <glyph glyph-name="ring.case" horiz-adv-x="250" 
d="M126 1021q51 0 86 -32t35 -81t-35 -81t-86 -32q-52 0 -87 32t-35 81q0 50 35 81.5t87 31.5zM126 943q-16 0 -25.5 -10t-9.5 -25t9.5 -24.5t25.5 -9.5q15 0 24.5 9.5t9.5 24.5t-9.5 25t-24.5 10z" />
    <glyph glyph-name="tilde.case" horiz-adv-x="398" 
d="M123 976q35 0 74.5 -24.5t56.5 -24.5q37 0 37 42h102q7 -72 -26 -125.5t-92 -53.5q-36 0 -75.5 25t-55.5 25q-37 0 -37 -43h-102q-7 73 25.5 126t92.5 53z" />
    <glyph glyph-name="anneau" horiz-adv-x="603" 
d="M302 762q119 0 197.5 -73.5t78.5 -183.5q0 -112 -78.5 -185.5t-197.5 -73.5q-121 0 -199 73.5t-78 185.5q0 111 78 184t199 73zM302 701q-93 0 -150 -54.5t-57 -141.5q0 -88 57 -142.5t150 -54.5q92 0 149 54.5t57 142.5q0 87 -57.5 141.5t-148.5 54.5z" />
    <glyph glyph-name="null" horiz-adv-x="600" 
 />
    </font>
</defs>
</svg>
