<?xml version="1.0" standalone="no"?>
<!DOCTYPE svg PUBLIC "-//W3C//DTD SVG 1.1//EN" "http://www.w3.org/Graphics/SVG/1.1/DTD/svg11.dtd" >
<svg>
<metadata>
Created by FontForge 20090622 at Fri Nov 22 21:45:57 2019
 By deploy user
Copyright &#194;&#169; 2014 by Type Dynamic. All rights reserved.
</metadata>
<defs>
<font id="Sailec-Regular" horiz-adv-x="591" >
  <font-face 
    font-family="Sailec"
    font-weight="400"
    font-stretch="normal"
    units-per-em="1000"
    panose-1="0 0 5 0 0 0 0 0 0 0"
    ascent="750"
    descent="-250"
    x-height="510"
    cap-height="748"
    bbox="-209 -306 1188 1063"
    underline-thickness="50"
    underline-position="-50"
    unicode-range="U+000D-U+FB02"
  />
<missing-glyph horiz-adv-x="703" 
d="M622 0h-541v748h541v-748zM196 686l157 -256l156 256h-313zM147 108l166 265l-166 265v-530zM394 373l162 -260v521zM198 62h311l-156 255z" />
    <glyph glyph-name="fi" unicode="fi" horiz-adv-x="604" 
d="M292 781q16 0 38 -2v-75q-16 2 -29 2q-47 0 -75.5 -29t-28.5 -80v-87h131v-75h-131v-435h-86v435h-99v75h99v85q0 87 49 136.5t132 49.5zM474 751q23 0 40 -16.5t17 -40.5q0 -23 -17 -39.5t-40 -16.5q-24 0 -40.5 16.5t-16.5 39.5q0 24 17 40.5t40 16.5zM516 0h-86v510
h86v-510z" />
    <glyph glyph-name="f_j" unicode="fj" horiz-adv-x="604" 
d="M292 781q16 0 38 -2v-75q-16 2 -29 2q-47 0 -75.5 -29t-28.5 -80v-87h131v-75h-131v-435h-86v435h-99v75h99v85q0 87 49 136.5t132 49.5zM474 751q23 0 40 -16.5t17 -40.5q0 -23 -17 -39.5t-40 -16.5q-24 0 -40.5 16.5t-16.5 39.5q0 24 16.5 40.5t40.5 16.5zM517 510
v-585q0 -88 -46.5 -136.5t-126.5 -48.5q-20 0 -40 3v75q14 -3 30 -3q45 0 71 28t26 80v587h86z" />
    <glyph glyph-name=".notdef" horiz-adv-x="703" 
d="M622 0h-541v748h541v-748zM196 686l157 -256l156 256h-313zM147 108l166 265l-166 265v-530zM394 373l162 -260v521zM198 62h311l-156 255z" />
    <glyph glyph-name=".null" horiz-adv-x="0" 
 />
    <glyph glyph-name="nonmarkingreturn" horiz-adv-x="333" 
 />
    <glyph glyph-name="CR" unicode="&#xd;" horiz-adv-x="600" 
 />
    <glyph glyph-name="space" unicode=" " horiz-adv-x="238" 
 />
    <glyph glyph-name="exclam" unicode="!" horiz-adv-x="279" 
d="M184 203h-91l-4 545h100zM139 109q25 0 42.5 -17.5t17.5 -42.5q0 -24 -17.5 -41.5t-42.5 -17.5q-24 0 -41.5 17.5t-17.5 41.5q0 25 17.5 42.5t41.5 17.5z" />
    <glyph glyph-name="quotedbl" unicode="&#x22;" horiz-adv-x="332" 
d="M125 512h-70l-10 230h90zM276 512h-70l-10 230h90z" />
    <glyph glyph-name="numbersign" unicode="#" horiz-adv-x="635" 
d="M507 542h120l-16 -70h-121l-47 -198h126l-16 -69h-126l-49 -205h-76l49 205h-148l-49 -205h-76l49 205h-119l16 69h120l47 198h-125l17 70h124l50 206h75l-49 -206h148l50 206h75zM266 472l-47 -198h149l47 198h-149z" />
    <glyph glyph-name="dollar" unicode="$" horiz-adv-x="656" 
d="M606 206q0 -100 -65 -154t-171 -61v-109h-73v110q-104 10 -170.5 66.5t-70.5 149.5l92 5q5 -65 59 -104t133 -39t126 32t47 97q0 26 -9.5 46t-23 32.5t-43 24.5t-53 18.5t-69.5 17.5q-60 14 -96 26.5t-73.5 35.5t-55 59t-17.5 87q0 85 58 144t166 67v108h73v-109
q95 -11 152.5 -65t61.5 -141l-93 -6q-4 63 -48 98.5t-115 35.5q-78 0 -120 -36t-42 -93q0 -61 41.5 -86t140.5 -47q67 -16 109.5 -31t79 -38.5t53 -58t16.5 -82.5z" />
    <glyph glyph-name="percent" unicode="%" horiz-adv-x="840" 
d="M202 758q72 0 117.5 -48.5t45.5 -129.5t-45.5 -130t-117.5 -49t-118 49t-46 130t46 129.5t118 48.5zM198 0h-85l528 748h85zM201 696q-43 0 -71 -31.5t-28 -84.5q0 -54 28 -86t71 -32q44 0 71.5 32t27.5 86t-27.5 85t-71.5 31zM637 347q72 0 118 -48.5t46 -129.5
t-46 -130t-118 -49q-71 0 -117 49t-46 130t46 129.5t117 48.5zM637 286q-44 0 -71.5 -31.5t-27.5 -85.5t28 -85.5t71 -31.5q44 0 71.5 31t27.5 86t-27.5 86t-71.5 31z" />
    <glyph glyph-name="ampersand" unicode="&#x26;" horiz-adv-x="697" 
d="M643 -9l-125 112q-94 -111 -232 -111q-116 0 -180 58.5t-64 150.5q0 128 130 217q-64 73 -64 151q0 91 56 140t148 49q81 0 136 -45t65 -124l-88 -6q-7 46 -36.5 71t-76.5 25q-52 0 -82 -28t-30 -81q0 -44 25 -77.5t78 -79.5q8 -7 12 -10l191 -171q34 65 60 163l81 -22
q-33 -118 -79 -197l131 -117zM288 69q98 0 170 88l-208 186l-26 23q-89 -63 -89 -157q0 -64 41 -102t112 -38z" />
    <glyph glyph-name="quotesingle" unicode="'" horiz-adv-x="181" 
d="M125 512h-70l-10 230h90z" />
    <glyph glyph-name="parenleft" unicode="(" horiz-adv-x="255" 
d="M161 728l75 -27q-110 -174 -110 -381q0 -206 110 -380l-75 -28q-121 181 -121 408q0 228 121 408z" />
    <glyph glyph-name="parenright" unicode=")" horiz-adv-x="255" 
d="M20 701l75 27q121 -180 121 -408q0 -227 -121 -408l-75 28q110 174 110 380q0 207 -110 381z" />
    <glyph glyph-name="asterisk" unicode="*" horiz-adv-x="333" 
d="M189 633l118 40l16 -47l-118 -38l74 -98l-41 -30l-71 101l-72 -102l-40 31l73 98l-118 38l16 47l117 -40l-1 124h49z" />
    <glyph glyph-name="plus" unicode="+" horiz-adv-x="546" 
d="M315 409h198v-79h-198v-203h-84v203h-198v79h198v198h84v-198z" />
    <glyph glyph-name="comma" unicode="," horiz-adv-x="202" 
d="M102 108q26 0 40.5 -18.5t14.5 -48.5q0 -126 -113 -190v39q51 38 59 102q-24 0 -41 16.5t-17 40.5t16.5 41.5t40.5 17.5z" />
    <glyph glyph-name="hyphen" unicode="-" horiz-adv-x="403" 
d="M358 221h-313v81h313v-81z" />
    <glyph glyph-name="period" unicode="." horiz-adv-x="207" 
d="M103 109q25 0 42.5 -17.5t17.5 -42.5q0 -24 -17.5 -41.5t-42.5 -17.5q-24 0 -41 17.5t-17 41.5q0 25 17 42.5t41 17.5z" />
    <glyph glyph-name="slash" unicode="/" horiz-adv-x="366" 
d="M101 -67h-91l256 815h89z" />
    <glyph glyph-name="zero" unicode="0" horiz-adv-x="644" 
d="M323 758q123 0 195.5 -100.5t72.5 -283.5t-72.5 -283.5t-195.5 -100.5q-125 0 -197.5 100.5t-72.5 283.5t72.5 283.5t197.5 100.5zM322 676q-86 0 -131 -77t-45 -225t45 -225t131 -77t131.5 77t45.5 225t-45.5 225t-131.5 77z" />
    <glyph glyph-name="one" unicode="1" horiz-adv-x="372" 
d="M280 0h-90v625l-132 -101l-45 71l200 153h67v-748z" />
    <glyph glyph-name="two" unicode="2" horiz-adv-x="536" 
d="M275 757q103 0 159 -55.5t56 -153.5q0 -86 -37 -153.5t-110 -143.5l-162 -170h318v-81h-443v74l219 231q69 72 96 121.5t27 117.5q0 61 -31.5 96.5t-89.5 35.5q-64 0 -97.5 -39t-34.5 -111l-91 5q2 107 59.5 166.5t161.5 59.5z" />
    <glyph glyph-name="three" unicode="3" horiz-adv-x="557" 
d="M276 758q100 0 157.5 -55.5t57.5 -149.5q0 -63 -30 -105.5t-77 -60.5q56 -13 91 -59t35 -117q0 -101 -63.5 -161t-168.5 -60q-108 0 -168.5 58.5t-67.5 161.5l92 5q6 -69 42.5 -106t101.5 -37t102.5 37.5t37.5 103.5q0 65 -40.5 99t-107.5 34h-73v81h71q58 0 94.5 34
t36.5 92q0 59 -33 91t-90 32q-59 0 -93 -35t-39 -100l-90 5q4 99 62 155.5t160 56.5z" />
    <glyph glyph-name="four" unicode="4" horiz-adv-x="596" 
d="M442 259h129v-82h-129v-177h-89v177h-326v75l339 496h76v-489zM128 259h225v325z" />
    <glyph glyph-name="five" unicode="5" horiz-adv-x="559" 
d="M289 459q99 0 161 -61.5t62 -168.5t-63 -173t-172 -66q-105 0 -165.5 57t-67.5 157l92 5q6 -65 41.5 -101t100.5 -36q68 0 105.5 43t37.5 112q0 68 -38.5 109.5t-102.5 41.5q-69 0 -125 -45h-84v415h413v-81h-323v-244q57 36 128 36z" />
    <glyph glyph-name="six" unicode="6" horiz-adv-x="592" 
d="M298 478q108 0 179 -68t71 -177t-71 -176t-179 -67q-110 0 -180.5 67t-70.5 176q0 86 51 155l269 360h108l-202 -271q8 1 25 1zM298 72q69 0 113.5 45t44.5 119t-44.5 118t-113.5 44q-82 0 -126 -56q-33 -42 -33 -106q0 -75 44.5 -119.5t114.5 -44.5z" />
    <glyph glyph-name="seven" unicode="7" horiz-adv-x="539" 
d="M515 674l-351 -674h-101l351 667h-391v81h492v-74z" />
    <glyph glyph-name="eight" unicode="8" horiz-adv-x="599" 
d="M299 758q98 0 161.5 -54.5t63.5 -146.5q0 -57 -28 -99t-73 -63q54 -23 87 -71t33 -115q0 -100 -68.5 -159.5t-175.5 -59.5q-106 0 -174.5 59.5t-68.5 159.5q0 66 32.5 114t86.5 71q-46 20 -73.5 62.5t-27.5 100.5q0 93 63 147t162 54zM300 676q-59 0 -97 -33t-38 -91
q0 -56 38 -88.5t97 -32.5q58 0 96 32.5t38 88.5q0 58 -38 91t-96 33zM299 351q-66 0 -109 -37.5t-43 -101.5t43 -102t109 -38t109 38t43 102t-43 101.5t-109 37.5z" />
    <glyph glyph-name="nine" unicode="9" horiz-adv-x="592" 
d="M294 758q110 0 180.5 -67t70.5 -176q0 -86 -51 -155l-269 -360h-108l202 271q-8 -1 -25 -1q-108 0 -179 68t-71 177t71 176t179 67zM294 350q82 0 126 56q33 42 33 106q0 75 -44.5 119.5t-114.5 44.5q-69 0 -113.5 -45t-44.5 -119t44.5 -118t113.5 -44z" />
    <glyph glyph-name="colon" unicode=":" horiz-adv-x="207" 
d="M98 519q25 0 42.5 -17.5t17.5 -42.5q0 -24 -17.5 -41t-42.5 -17q-24 0 -41 17t-17 41q0 25 17 42.5t41 17.5zM98 109q25 0 42.5 -17.5t17.5 -42.5q0 -24 -17.5 -41.5t-42.5 -17.5q-24 0 -41 17.5t-17 41.5q0 25 17 42.5t41 17.5z" />
    <glyph glyph-name="semicolon" unicode=";" horiz-adv-x="207" 
d="M98 401q-24 0 -41 17t-17 41q0 25 17 42.5t41 17.5q25 0 42.5 -17.5t17.5 -42.5q0 -24 -17.5 -41t-42.5 -17zM102 108q26 0 40.5 -18.5t14.5 -48.5q0 -126 -113 -190v39q51 38 59 102q-24 0 -41 16.5t-17 40.5t16.5 41.5t40.5 17.5z" />
    <glyph glyph-name="less" unicode="&#x3c;" horiz-adv-x="518" 
d="M486 504l-288 -135l288 -135l-2 -97l-457 232l457 232z" />
    <glyph glyph-name="equal" unicode="=" horiz-adv-x="546" 
d="M513 447h-480v82h480v-82zM513 208h-480v81h480v-81z" />
    <glyph glyph-name="greater" unicode="&#x3e;" horiz-adv-x="518" 
d="M491 369l-457 -232l-1 97l287 135l-287 135l1 97z" />
    <glyph glyph-name="question" unicode="?" horiz-adv-x="501" 
d="M252 758q107 0 168.5 -59.5t61.5 -155.5q0 -61 -26 -99t-80 -77q-46 -34 -64.5 -63.5t-18.5 -73.5v-27h-91v31q0 50 22.5 87t73.5 78q46 34 68 65.5t22 77.5q0 60 -36 98t-100 38t-100.5 -34t-42.5 -95l-91 6q6 94 68.5 148.5t165.5 54.5zM246 109q25 0 42.5 -17.5
t17.5 -42.5q0 -24 -17.5 -41.5t-42.5 -17.5q-24 0 -41.5 17.5t-17.5 41.5q0 25 17.5 42.5t41.5 17.5z" />
    <glyph glyph-name="at" unicode="@" horiz-adv-x="806" 
d="M403 605q155 0 258 -102.5t103 -256.5q0 -98 -38.5 -150.5t-105.5 -52.5q-76 0 -93 62q-45 -65 -141 -65q-84 0 -136 56t-52 152t52 152.5t136 56.5q100 0 138 -66v54h64v-289q0 -57 47 -57q34 0 54 39t20 108q0 131 -87.5 219t-218.5 88q-133 0 -219.5 -87.5
t-86.5 -219.5q0 -134 87.5 -220t214.5 -86q105 0 185 50l15 -50q-86 -53 -200 -53q-152 0 -254.5 101.5t-102.5 257.5q0 155 102 257t259 102zM521 237v23q0 67 -34 102t-91 35q-58 0 -94 -39.5t-36 -109.5t36 -109.5t94 -39.5q57 0 91 35.5t34 102.5z" />
    <glyph glyph-name="A" unicode="A" horiz-adv-x="735" 
d="M719 0h-100l-78 190h-347l-79 -190h-100l313 748h78zM228 270h279l-139 337z" />
    <glyph glyph-name="B" unicode="B" horiz-adv-x="686" 
d="M90 748h280q100 0 161.5 -51.5t61.5 -147.5q0 -117 -85 -159q51 -17 84 -64t33 -119q0 -101 -63.5 -154t-165.5 -53h-306v748zM181 667v-244h203q116 0 116 120q0 60 -38.5 92t-102.5 32h-178zM181 344v-263h204q65 0 106 32t41 99t-40 99.5t-99 32.5h-212z" />
    <glyph glyph-name="C" unicode="C" horiz-adv-x="808" 
d="M423 758q134 0 229 -75t112 -202l-95 -9q-14 96 -82 150t-167 54q-121 0 -196 -81t-75 -221q0 -143 76.5 -222.5t196.5 -79.5q98 0 164.5 50.5t83.5 142.5l95 -8q-21 -123 -114 -195t-226 -72q-162 0 -265.5 103t-103.5 281t102.5 281t264.5 103z" />
    <glyph glyph-name="D" unicode="D" horiz-adv-x="799" 
d="M90 748h292q159 0 259.5 -100t100.5 -274q0 -173 -102 -273.5t-260 -100.5h-290v748zM181 670v-592h200q121 0 195.5 77.5t74.5 218.5t-73.5 218.5t-194.5 77.5h-202z" />
    <glyph glyph-name="E" unicode="E" horiz-adv-x="593" 
d="M553 667h-371v-241h327v-79h-327v-266h371v-81h-463v748h463v-81z" />
    <glyph glyph-name="F" unicode="F" horiz-adv-x="583" 
d="M553 667h-371v-245h309v-81h-309v-341h-92v748h463v-81z" />
    <glyph glyph-name="G" unicode="G" horiz-adv-x="821" 
d="M767 380v-31q0 -166 -93.5 -262.5t-251.5 -96.5q-160 0 -263 103t-103 281t102 281t263 103q131 0 224.5 -70.5t115.5 -194.5l-95 -15q-14 92 -81 145t-165 53q-123 0 -197 -78.5t-74 -223.5q0 -144 74.5 -223t196.5 -79q106 0 172 57t77 170h-246v81h344z" />
    <glyph glyph-name="H" unicode="H" horiz-adv-x="753" 
d="M663 0h-91v347h-390v-347h-92v748h92v-319h390v319h91v-748z" />
    <glyph glyph-name="I" unicode="I" horiz-adv-x="271" 
d="M182 0h-92v748h92v-748z" />
    <glyph glyph-name="J" unicode="J" horiz-adv-x="579" 
d="M495 748v-511q0 -117 -62 -182t-171 -65q-106 0 -169.5 62.5t-69.5 170.5l92 15q4 -79 42.5 -122.5t104.5 -43.5q68 0 104.5 41.5t36.5 121.5v513h92z" />
    <glyph glyph-name="K" unicode="K" horiz-adv-x="675" 
d="M333 430l327 -430h-112l-276 358l-90 -101v-257h-92v748h92v-355l319 355h118z" />
    <glyph glyph-name="L" unicode="L" 
d="M182 81h375v-81h-467v748h92v-667z" />
    <glyph glyph-name="M" unicode="M" horiz-adv-x="981" 
d="M891 0h-91v541l-278 -536h-61l-279 536v-541h-92v748h80l321 -610l321 610h79v-748z" />
    <glyph glyph-name="N" unicode="N" horiz-adv-x="750" 
d="M660 0h-78l-400 578v-578h-92v748h77l402 -579v579h91v-748z" />
    <glyph glyph-name="O" unicode="O" horiz-adv-x="866" 
d="M433 758q163 0 269.5 -104.5t106.5 -279.5t-106.5 -279.5t-269.5 -104.5t-270 104.5t-107 279.5t107 279.5t270 104.5zM433 676q-124 0 -204 -81t-80 -221q0 -139 80.5 -220.5t203.5 -81.5t203 81.5t80 220.5q0 140 -80 221t-203 81z" />
    <glyph glyph-name="P" unicode="P" horiz-adv-x="649" 
d="M90 748h293q102 0 166 -59t64 -168q0 -108 -64 -167t-166 -59h-201v-295h-92v748zM181 667v-291h191q64 0 105.5 37.5t41.5 107.5q0 71 -41.5 108.5t-105.5 37.5h-191z" />
    <glyph glyph-name="Q" unicode="Q" horiz-adv-x="868" 
d="M789 -76l-133 132q-95 -66 -223 -66q-163 0 -270 104.5t-107 279.5t107 279.5t270 104.5t269.5 -104.5t106.5 -279.5q0 -153 -86 -257l129 -128zM433 72q91 0 160 46l-149 148l64 65l151 -150q57 78 57 193q0 140 -80 221t-203 81q-124 0 -204 -81t-80 -221
q0 -139 80.5 -220.5t203.5 -81.5z" />
    <glyph glyph-name="R" unicode="R" horiz-adv-x="686" 
d="M545 0l-168 300h-195v-300h-92v748h289q101 0 165.5 -58t64.5 -166q0 -80 -36.5 -133t-100.5 -76l176 -315h-103zM181 381h187q63 0 105 36.5t42 106.5t-42 106.5t-105 36.5h-187v-286z" />
    <glyph glyph-name="S" unicode="S" horiz-adv-x="656" 
d="M326 758q112 0 183 -55.5t75 -152.5l-93 -6q-4 63 -48 98.5t-115 35.5q-78 0 -120 -36t-42 -93q0 -61 41.5 -86t140.5 -47q67 -16 109.5 -31t79 -38.5t53 -58t16.5 -82.5q0 -107 -74.5 -161.5t-191.5 -54.5q-121 0 -200 58t-84 160l92 5q5 -65 59 -104t133 -39t126 32
t47 97q0 26 -9.5 46t-23 32.5t-43 24.5t-53 18.5t-69.5 17.5q-60 14 -96 26.5t-73.5 35.5t-55 59t-17.5 87q0 91 65.5 151.5t187.5 60.5z" />
    <glyph glyph-name="T" unicode="T" horiz-adv-x="682" 
d="M665 667h-278v-667h-92v667h-278v81h648v-81z" />
    <glyph glyph-name="U" unicode="U" horiz-adv-x="764" 
d="M680 748v-467q0 -139 -80 -215t-218 -76t-218 76t-80 215v467h91v-466q0 -103 54.5 -156.5t152.5 -53.5q97 0 152 54t55 156v466h91z" />
    <glyph glyph-name="V" unicode="V" horiz-adv-x="745" 
d="M411 0h-77l-314 748h100l253 -606l252 606h100z" />
    <glyph glyph-name="W" unicode="W" horiz-adv-x="1118" 
d="M837 0h-77l-201 580l-200 -580h-77l-262 748h99l203 -587l200 587h75l201 -587l202 587h98z" />
    <glyph glyph-name="X" unicode="X" horiz-adv-x="691" 
d="M413 380l253 -380h-106l-214 319l-215 -319h-106l254 380l-242 368h105l204 -306l204 306h105z" />
    <glyph glyph-name="Y" unicode="Y" horiz-adv-x="692" 
d="M392 311v-311h-91v311l-284 437h106l224 -347l222 347h106z" />
    <glyph glyph-name="Z" unicode="Z" horiz-adv-x="618" 
d="M575 679l-422 -598h430v-81h-547v69l421 598h-407v81h525v-69z" />
    <glyph glyph-name="bracketleft" unicode="[" horiz-adv-x="264" 
d="M243 646h-99v-651h99v-72h-185v795h185v-72z" />
    <glyph glyph-name="backslash" unicode="\" horiz-adv-x="366" 
d="M355 -67h-90l-255 815h90z" />
    <glyph glyph-name="bracketright" unicode="]" horiz-adv-x="264" 
d="M207 -77h-184v72h98v651h-98v72h184v-795z" />
    <glyph glyph-name="asciicircum" unicode="^" horiz-adv-x="555" 
d="M524 374h-97l-149 252l-150 -252h-98l248 388z" />
    <glyph glyph-name="underscore" unicode="_" horiz-adv-x="685" 
d="M640 -81h-595v81h595v-81z" />
    <glyph glyph-name="grave" unicode="`" horiz-adv-x="236" 
d="M219 595h-68l-133 191h99z" />
    <glyph glyph-name="a" unicode="a" horiz-adv-x="542" 
d="M264 519q94 0 144.5 -51.5t50.5 -146.5v-321h-87v60q-59 -70 -152 -70q-76 0 -121.5 38.5t-45.5 106.5q0 142 187 152l132 8v24q0 124 -107 124q-54 0 -82.5 -31t-28.5 -75l-87 4q0 70 54 124t143 54zM373 226l-122 -8q-111 -7 -111 -81q0 -73 93 -73q63 0 101.5 34.5
t38.5 106.5v21z" />
    <glyph glyph-name="b" unicode="b" horiz-adv-x="649" 
d="M173 777v-344q23 39 69 62.5t108 23.5q107 0 176.5 -72t69.5 -193t-69.5 -192.5t-176.5 -71.5q-64 0 -111 25.5t-70 67.5v-83h-82v777h86zM337 444q-73 0 -118 -45t-45 -129v-30q0 -84 45 -129.5t118 -45.5q75 0 123 50t48 140q0 89 -48 139t-123 50z" />
    <glyph glyph-name="c" unicode="c" horiz-adv-x="578" 
d="M304 519q91 0 154.5 -51.5t74.5 -139.5l-84 -7q-7 57 -47 90.5t-98 33.5q-73 0 -118 -50.5t-45 -139.5t45.5 -139.5t117.5 -50.5q60 0 98.5 31t47.5 85l84 -8q-14 -85 -76 -134t-154 -49q-110 0 -180.5 71t-70.5 194t70 193.5t181 70.5z" />
    <glyph glyph-name="d" unicode="d" horiz-adv-x="649" 
d="M561 0h-81v83q-23 -41 -70.5 -67t-110.5 -26q-107 0 -176.5 71.5t-69.5 192.5t69.5 193t176.5 72q62 0 108 -24t68 -62v344h86v-777zM311 444q-75 0 -123 -50t-48 -139q0 -90 48 -140t123 -50q73 0 118.5 45.5t45.5 129.5v30q0 84 -45.5 129t-118.5 45z" />
    <glyph glyph-name="e" unicode="e" 
d="M538 222h-394q4 -73 48 -115t112 -42q56 0 93 24t50 67l86 -5q-16 -70 -78 -115.5t-149 -45.5q-112 0 -182.5 71.5t-70.5 193.5t70 193t181 71q109 0 171.5 -68t62.5 -182v-47zM303 444q-68 0 -111.5 -39.5t-47.5 -112.5h308q-2 69 -40 110.5t-109 41.5z" />
    <glyph glyph-name="f" unicode="f" horiz-adv-x="343" 
d="M292 781q16 0 38 -2v-75q-16 2 -29 2q-47 0 -75.5 -29t-28.5 -80v-87h131v-75h-131v-435h-86v435h-99v75h99v85q0 87 49 136.5t132 49.5z" />
    <glyph glyph-name="g" unicode="g" horiz-adv-x="644" 
d="M299 519q63 0 110.5 -26t70.5 -67v84h81v-539q0 -109 -66.5 -172t-177.5 -63q-104 0 -167.5 49.5t-79.5 131.5l86 3q9 -51 52.5 -81t105.5 -30q73 0 117 41t44 115v111q-22 -38 -68 -62t-108 -24q-107 0 -176.5 72t-69.5 193t69.5 192.5t176.5 71.5zM311 444
q-75 0 -123 -50t-48 -140q0 -89 48 -139t123 -50q73 0 118.5 45t45.5 129v30q0 84 -45.5 129.5t-118.5 45.5z" />
    <glyph glyph-name="h" unicode="h" horiz-adv-x="603" 
d="M173 777v-337q19 33 59.5 56t95.5 23q87 0 142.5 -57t55.5 -152v-310h-87v299q0 63 -35.5 101.5t-93.5 38.5q-60 0 -98.5 -41t-38.5 -100v-298h-86v777h86z" />
    <glyph glyph-name="i" unicode="i" horiz-adv-x="261" 
d="M131 751q23 0 40 -16.5t17 -40.5q0 -23 -17 -39.5t-40 -16.5q-24 0 -40.5 16.5t-16.5 39.5q0 24 17 40.5t40 16.5zM173 0h-86v510h86v-510z" />
    <glyph glyph-name="j" unicode="j" horiz-adv-x="261" 
d="M131 751q23 0 40 -16.5t17 -40.5q0 -23 -17 -39.5t-40 -16.5q-24 0 -40.5 16.5t-16.5 39.5q0 24 16.5 40.5t40.5 16.5zM174 510v-585q0 -88 -46.5 -136.5t-126.5 -48.5q-21 0 -40 3v75q13 -3 30 -3q45 0 71 28t26 80v587h86z" />
    <glyph glyph-name="k" unicode="k" horiz-adv-x="537" 
d="M173 286l224 224h107l-215 -222l239 -288h-110l-190 225l-55 -54v-171h-86v777h86v-491z" />
    <glyph glyph-name="l" unicode="l" horiz-adv-x="261" 
d="M173 0h-86v777h86v-777z" />
    <glyph glyph-name="m" unicode="m" horiz-adv-x="935" 
d="M662 519q85 0 137.5 -57.5t52.5 -150.5v-311h-86v299q0 64 -33.5 102t-90.5 38q-54 0 -88.5 -34.5t-39.5 -88.5v-6v-310h-87v299q0 63 -33.5 101.5t-87.5 38.5q-59 0 -96 -41t-37 -100v-298h-86v510h82v-77q44 86 155 86q56 0 100 -26.5t67 -74.5q23 46 67.5 73.5
t103.5 27.5z" />
    <glyph glyph-name="n" unicode="n" horiz-adv-x="609" 
d="M328 519q87 0 142.5 -57t55.5 -152v-310h-87v299q0 63 -35.5 101.5t-93.5 38.5q-60 0 -98.5 -41t-38.5 -100v-298h-86v510h82v-76q20 37 61 61t98 24z" />
    <glyph glyph-name="o" unicode="o" horiz-adv-x="631" 
d="M315 519q113 0 187.5 -72.5t74.5 -191.5t-74.5 -192t-187.5 -73t-187.5 73t-74.5 192t74.5 191.5t187.5 72.5zM315 444q-76 0 -125.5 -51t-49.5 -138t49.5 -138.5t125.5 -51.5t125.5 51.5t49.5 138.5t-49.5 138t-125.5 51z" />
    <glyph glyph-name="p" unicode="p" horiz-adv-x="649" 
d="M350 519q107 0 176.5 -71.5t69.5 -192.5t-69.5 -193t-176.5 -72q-62 0 -108 23.5t-69 62.5v-331h-86v765h82v-84q23 42 70 67.5t111 25.5zM337 444q-73 0 -118 -45.5t-45 -129.5v-30q0 -83 45 -128.5t118 -45.5q75 0 123 50t48 139q0 90 -48 140t-123 50z" />
    <glyph glyph-name="q" unicode="q" horiz-adv-x="649" 
d="M299 519q63 0 110.5 -26t70.5 -67v84h81v-765h-86v331q-22 -38 -68 -62t-108 -24q-107 0 -176.5 72t-69.5 193t69.5 192.5t176.5 71.5zM311 444q-75 0 -123 -50t-48 -140q0 -89 48 -139t123 -50q73 0 118.5 45t45.5 129v30q0 84 -45.5 129.5t-118.5 45.5z" />
    <glyph glyph-name="r" unicode="r" horiz-adv-x="340" 
d="M321 516v-83q-67 0 -107.5 -40t-40.5 -100v-293h-86v510h84v-77q15 35 53 59t97 24z" />
    <glyph glyph-name="s" unicode="s" horiz-adv-x="499" 
d="M244 518q82 1 130 -41.5t57 -111.5l-86 -5q-10 85 -104 84q-47 1 -72 -19t-25 -55q0 -9 1.5 -16t5.5 -13t7.5 -10.5t12 -8.5l14 -6.5t17 -5.5t18.5 -4.5t22 -5l23 -5.5q91 -22 134 -53t43 -94q0 -75 -52 -116.5t-141 -41.5q-86 0 -139 40.5t-63 114.5l86 6
q12 -86 118 -86q48 0 76.5 19.5t28.5 56.5t-25.5 52.5t-100.5 33.5q-37 9 -57 14.5t-46 16.5t-38.5 24.5t-22 35.5t-9.5 51q0 68 49.5 109t137.5 40z" />
    <glyph glyph-name="t" unicode="t" horiz-adv-x="357" 
d="M283 71q20 0 50 5v-77q-34 -6 -69 -6q-73 0 -115.5 39.5t-41.5 120.5l1 282h-95v75h95l1 176h87l-1 -176h137v-75h-137l-2 -265q0 -99 90 -99z" />
    <glyph glyph-name="u" unicode="u" 
d="M504 0h-82v76q-16 -35 -55 -60.5t-98 -25.5q-85 0 -135.5 56.5t-50.5 148.5v315h86v-303q0 -63 31.5 -99.5t88.5 -36.5q59 0 94 41t35 100v298h86v-510z" />
    <glyph glyph-name="v" unicode="v" horiz-adv-x="530" 
d="M300 0h-69l-221 510h95l161 -380l158 380h96z" />
    <glyph glyph-name="w" unicode="w" horiz-adv-x="820" 
d="M616 0h-69l-137 365l-137 -365h-69l-194 510h94l137 -370l138 370h61l139 -370l138 370h93z" />
    <glyph glyph-name="x" unicode="x" horiz-adv-x="515" 
d="M320 261l179 -261h-103l-138 202l-140 -202h-101l175 263l-167 247h102l131 -191l128 191h103z" />
    <glyph glyph-name="y" unicode="y" horiz-adv-x="530" 
d="M193 -255h-95l121 283l-203 482h96l154 -385l153 385h96z" />
    <glyph glyph-name="z" unicode="z" horiz-adv-x="448" 
d="M405 452l-271 -382h283v-70h-384v57l272 382h-266v71h366v-58z" />
    <glyph glyph-name="braceleft" unicode="{" horiz-adv-x="251" 
d="M228 645h-6q-50 0 -66 -38.5t0 -122.5q6 -34 8 -58t-1 -48t-16.5 -38.5t-37.5 -18.5q24 -5 37.5 -19.5t16.5 -38.5t1 -48t-8 -58q-16 -85 0 -123.5t66 -38.5h6v-72h-6q-91 0 -132.5 58.5t-18.5 168.5q19 62 12 98t-55 36h-8v72h8q48 0 55 36.5t-12 98.5q-23 109 19 168
t132 59h6v-73z" />
    <glyph glyph-name="bar" unicode="|" horiz-adv-x="254" 
d="M169 -67h-86v815h86v-815z" />
    <glyph glyph-name="braceright" unicode="}" horiz-adv-x="251" 
d="M23 718h6q91 0 132.5 -59t18.5 -168q-7 -29 -10 -46.5t-3 -36.5t5 -29t17.5 -16.5t33.5 -6.5h8v-72h-8q-21 0 -33 -6.5t-18 -16t-5.5 -29t3.5 -36.5t10 -46q23 -110 -18.5 -168.5t-132.5 -58.5h-6v72h6q50 0 66 38.5t0 123.5q-6 34 -8 58t1 48t16.5 38.5t37.5 19.5
q-24 4 -37.5 18.5t-16.5 38.5t-1 48t8 58q16 84 0 122.5t-66 38.5h-6v73z" />
    <glyph glyph-name="asciitilde" unicode="~" horiz-adv-x="536" 
d="M475 440l40 -57q-33 -42 -68 -63t-83 -21q-47 0 -101.5 31t-87.5 31q-37 0 -62 -13.5t-52 -45.5l-40 58q33 42 66.5 62t79.5 20q38 0 92.5 -31.5t96.5 -31.5q39 0 65.5 14.5t53.5 46.5z" />
    <glyph glyph-name="exclamdown" unicode="&#xa1;" horiz-adv-x="279" 
d="M141 391q-25 0 -42.5 17.5t-17.5 42.5q0 24 17.5 41.5t42.5 17.5q24 0 41 -17.5t17 -41.5q0 -25 -17 -42.5t-41 -17.5zM95 297h91l5 -545h-101z" />
    <glyph glyph-name="cent" unicode="&#xa2;" horiz-adv-x="578" 
d="M450 181l84 -8q-13 -76 -65 -124t-131 -57v-110h-73v111q-95 12 -153.5 81.5t-58.5 180.5t58.5 180.5t153.5 81.5v110h73v-110q79 -9 132 -59t63 -130l-84 -7q-7 57 -47 90.5t-98 33.5q-73 0 -118 -50.5t-45 -139.5t45.5 -139.5t117.5 -50.5q60 0 98.5 31t47.5 85z" />
    <glyph glyph-name="sterling" unicode="&#xa3;" horiz-adv-x="547" 
d="M519 81v-81h-484v75q59 24 84 70.5t18 126.5l-4 56h-105v72h99l-8 107q-11 119 38 185t157 66q93 0 142.5 -50t51.5 -134l-91 -5q0 49 -26.5 78.5t-78.5 29.5q-119 0 -108 -154l10 -123h172v-72h-167l5 -57q10 -116 -77 -190h372z" />
    <glyph glyph-name="currency" unicode="&#xa4;" horiz-adv-x="588" 
d="M473 252q0 -66 -28 -114l118 -118l-55 -54l-117 116q-41 -26 -97 -26q-54 0 -96 28l-118 -118l-55 54l119 119q-29 48 -29 113t30 114l-120 120l55 54l118 -118q44 27 96 27t96 -27l118 118l55 -54l-120 -120q30 -49 30 -114zM185 252q0 -62 30.5 -98t78.5 -36
q47 0 77.5 36.5t30.5 97.5q0 62 -30 98.5t-78 36.5t-78.5 -36.5t-30.5 -98.5z" />
    <glyph glyph-name="yen" unicode="&#xa5;" horiz-adv-x="692" 
d="M417 349h116v-55h-141v-91h141v-55h-141v-148h-91v148h-141v55h141v91h-141v55h116l-259 399h106l224 -347l222 347h106z" />
    <glyph glyph-name="brokenbar" unicode="&#xa6;" horiz-adv-x="254" 
d="M169 429h-86v319h86v-319zM169 -67h-86v319h86v-319z" />
    <glyph glyph-name="section" unicode="&#xa7;" horiz-adv-x="516" 
d="M398 251q67 -36 67 -118q0 -75 -56 -118t-149 -43q-97 0 -155 42t-58 117l86 4q1 -45 35 -69.5t92 -24.5q54 0 86.5 22.5t32.5 65.5q0 41 -31 59t-105 34q-94 20 -141.5 54t-47.5 101q0 72 65 116q-57 35 -57 110q0 72 52 113.5t137 41.5q90 0 143 -40t54 -110l-86 -3
q-1 41 -30.5 62.5t-79.5 21.5q-47 0 -75.5 -21t-28.5 -63q0 -39 28 -55t94 -30q95 -21 142 -54.5t47 -100.5q0 -41 -15 -66.5t-46 -47.5zM133 381q0 -41 32.5 -58.5t109.5 -33.5q25 -5 52 -12q27 17 39.5 35.5t12.5 48.5q0 42 -32 59t-109 33q-32 7 -52 13q-53 -36 -53 -85z
" />
    <glyph glyph-name="dieresis" unicode="&#xa8;" horiz-adv-x="294" 
d="M72 732q22 0 37 -15t15 -36q0 -22 -15 -36.5t-37 -14.5t-37 14.5t-15 36.5q0 21 15 36t37 15zM222 732q22 0 36.5 -15t14.5 -36q0 -22 -14.5 -36.5t-36.5 -14.5t-37.5 14.5t-15.5 36.5q0 21 15.5 36t37.5 15z" />
    <glyph glyph-name="copyright" unicode="&#xa9;" horiz-adv-x="583" 
d="M292 759q110 0 185 -73t75 -180t-75 -179.5t-185 -72.5q-112 0 -187 72.5t-75 179.5q0 108 75 180.5t187 72.5zM291 727q-97 0 -161 -63t-64 -158t64 -157.5t161 -62.5t161 62.5t64 157.5t-64 158t-161 63zM292 663q55 0 93.5 -30.5t45.5 -82.5l-50 -3q-5 34 -29.5 53
t-59.5 19q-44 0 -71 -30t-27 -82t28 -82t71 -30q34 0 58 18t30 49l51 -3q-9 -50 -47 -79.5t-92 -29.5q-64 0 -106.5 43t-42.5 114q0 72 42 114t106 42z" />
    <glyph glyph-name="ordfeminine" unicode="&#xaa;" horiz-adv-x="441" 
d="M218 756q159 0 159 -160v-256h-73v52q-17 -26 -51.5 -43t-77.5 -17q-62 0 -98 29.5t-36 85.5q0 113 164 124l94 6v24q0 42 -21 65t-60 23q-42 0 -65.5 -24t-23.5 -57l-76 3q0 58 45 101.5t120 43.5zM300 522l-89 -6q-91 -7 -91 -65t70 -58q45 -1 77.5 27t32.5 84v18z" />
    <glyph glyph-name="guillemotleft" unicode="&#xab;" horiz-adv-x="531" 
d="M262 430l-149 -176l149 -176l-68 -44l-179 220l179 219zM510 430l-149 -176l149 -176l-68 -44l-179 220l179 219z" />
    <glyph glyph-name="logicalnot" unicode="&#xac;" horiz-adv-x="556" 
d="M511 165h-68v181h-405v68h473v-249z" />
    <glyph glyph-name="registered" unicode="&#xae;" horiz-adv-x="583" 
d="M292 759q110 0 185 -73t75 -180t-75 -179.5t-185 -72.5q-112 0 -187 72.5t-75 179.5q0 108 75 180.5t187 72.5zM291 286q97 0 161 62.5t64 157.5t-64 158t-161 63t-161 -63t-64 -158t64 -157.5t161 -62.5zM403 566q0 -63 -50 -86l66 -127h-54l-62 119h-69v-119h-49v306
h124q42 0 68 -24.5t26 -68.5zM234 513h62q57 0 57 53q0 52 -57 52h-62v-105z" />
    <glyph glyph-name="macron" unicode="&#xaf;" horiz-adv-x="294" 
d="M279 635h-264v67h264v-67z" />
    <glyph glyph-name="degree" unicode="&#xb0;" horiz-adv-x="347" 
d="M173 757q65 0 104.5 -37t39.5 -103v-22q0 -65 -39.5 -102t-104.5 -37q-64 0 -103.5 37t-39.5 102v22q0 66 39 103t104 37zM173 703q-38 0 -60.5 -23.5t-22.5 -65.5v-16q0 -41 22.5 -64.5t60.5 -23.5t61 23.5t23 64.5v16q0 41 -23 65t-61 24z" />
    <glyph glyph-name="plusminus" unicode="&#xb1;" horiz-adv-x="546" 
d="M315 509h198v-79h-198v-202h-84v202h-198v79h198v198h84v-198zM513 84h-480v81h480v-81z" />
    <glyph glyph-name="acute" unicode="&#xb4;" horiz-adv-x="236" 
d="M86 595h-69l103 191h98z" />
    <glyph glyph-name="paragraph" unicode="&#xb6;" horiz-adv-x="666" 
d="M646 683h-69v-750h-68v750h-130v-750h-67v446h-62q-93 0 -149.5 47.5t-56.5 137.5q0 88 56.5 136t149.5 48h396v-65z" />
    <glyph glyph-name="periodcentered" unicode="&#xb7;" horiz-adv-x="217" 
d="M103 355q25 0 42.5 -17.5t17.5 -42.5q0 -24 -17.5 -41.5t-42.5 -17.5q-24 0 -41 17.5t-17 41.5q0 25 17 42.5t41 17.5z" />
    <glyph glyph-name="cedilla" unicode="&#xb8;" horiz-adv-x="274" 
d="M150 8l-13 -57q51 -4 81 -28t30 -67q0 -48 -37 -74.5t-89 -26.5q-55 0 -97 21l16 53q32 -20 73 -20q28 0 48.5 12t20.5 36q0 50 -78 50q-11 0 -29 -4l28 105h46z" />
    <glyph glyph-name="ordmasculine" unicode="&#xba;" horiz-adv-x="506" 
d="M252 756q92 0 152 -58.5t60 -154.5t-60 -153.5t-152 -57.5t-151.5 57.5t-59.5 153.5t59.5 154.5t151.5 58.5zM253 689q-58 0 -95.5 -39.5t-37.5 -106.5t37.5 -105.5t95.5 -38.5q59 0 96.5 38.5t37.5 105.5t-37.5 106.5t-96.5 39.5z" />
    <glyph glyph-name="guillemotright" unicode="&#xbb;" horiz-adv-x="531" 
d="M268 254l-180 -220l-68 44l150 176l-150 176l68 43zM515 254l-179 -220l-68 44l149 176l-149 176l68 43z" />
    <glyph glyph-name="onequarter" unicode="&#xbc;" horiz-adv-x="690" 
d="M113 0h-89l527 748h89zM175 322h-68v321l-69 -53l-30 53l124 90h43v-411zM609 151h62v-61h-62v-90h-68v90h-178v53l182 268h64v-260zM423 151h119v167z" />
    <glyph glyph-name="onehalf" unicode="&#xbd;" horiz-adv-x="728" 
d="M113 0h-89l527 748h89zM175 322h-68v321l-69 -53l-30 53l124 90h43v-411zM571 417q62 0 94 -34.5t32 -90.5q0 -43 -18.5 -77.5t-55.5 -74.5l-77 -80h155v-60h-256v46l129 135q55 58 55 112q0 29 -15 46.5t-42 17.5q-29 0 -46 -18.5t-17 -51.5l-66 4q1 59 35 92.5t93 33.5
z" />
    <glyph glyph-name="threequarters" unicode="&#xbe;" horiz-adv-x="781" 
d="M203 0h-89l527 748h89zM159 738q58 0 91 -31t33 -84q0 -63 -55 -89q27 -8 45 -33t18 -62q0 -57 -36 -90.5t-95 -33.5q-62 0 -96.5 33t-36.5 90l67 5q6 -67 66 -67q30 0 47 17t17 48q0 30 -19 46t-50 16h-41v58h40q27 0 45 16t18 43t-16 42.5t-42 15.5q-27 0 -43 -16.5
t-17 -46.5l-66 4q2 56 34.5 87.5t91.5 31.5zM699 151h62v-61h-62v-90h-68v90h-178v53l182 268h64v-260zM513 151h119v167z" />
    <glyph glyph-name="questiondown" unicode="&#xbf;" horiz-adv-x="501" 
d="M256 401q-25 0 -42.5 17.5t-17.5 42.5q0 24 17.5 41t42.5 17q24 0 41 -17t17 -41q0 -25 -17 -42.5t-41 -17.5zM250 -249q-107 0 -168.5 59.5t-61.5 155.5q0 61 26 99t80 78q45 34 63.5 63.5t18.5 72.5v28h92v-32q0 -49 -22.5 -86t-73.5 -78q-47 -35 -69 -66t-22 -77
q0 -60 36.5 -98t100.5 -38q63 0 99.5 33.5t43.5 94.5l91 -5q-7 -94 -69.5 -149t-164.5 -55z" />
    <glyph glyph-name="Agrave" unicode="&#xc0;" horiz-adv-x="735" 
d="M406 795h-82l-187 141h121zM719 0h-100l-78 190h-347l-79 -190h-100l313 748h78zM228 270h279l-139 337z" />
    <glyph glyph-name="Aacute" unicode="&#xc1;" horiz-adv-x="735" 
d="M408 795h-82l149 141h120zM719 0h-100l-78 190h-347l-79 -190h-100l313 748h78zM228 270h279l-139 337z" />
    <glyph glyph-name="Acircumflex" unicode="&#xc2;" horiz-adv-x="735" 
d="M528 795h-75l-85 90l-86 -90h-74l119 143h82zM719 0h-100l-78 190h-347l-79 -190h-100l313 748h78zM228 270h279l-139 337z" />
    <glyph glyph-name="Atilde" unicode="&#xc3;" horiz-adv-x="735" 
d="M295 936q33 0 73.5 -31t62.5 -31q24 0 36.5 15t13.5 40h49q3 -50 -22 -85t-68 -35q-33 0 -73.5 30.5t-62.5 30.5q-47 0 -49 -54h-50q-3 50 22 85t68 35zM719 0h-100l-78 190h-347l-79 -190h-100l313 748h78zM228 270h279l-139 337z" />
    <glyph glyph-name="Adieresis" unicode="&#xc4;" horiz-adv-x="735" 
d="M294 920q22 0 37 -15t15 -36q0 -22 -15 -37t-37 -15t-37 15t-15 37q0 21 15 36t37 15zM444 920q22 0 36.5 -15t14.5 -36q0 -22 -14.5 -37t-36.5 -15t-37.5 15t-15.5 37q0 21 15.5 36t37.5 15zM719 0h-100l-78 190h-347l-79 -190h-100l313 748h78zM228 270h279l-139 337z
" />
    <glyph glyph-name="Aring" unicode="&#xc5;" horiz-adv-x="735" 
d="M368 989q43 0 73 -28t30 -70t-30 -70t-73 -28q-44 0 -73.5 28t-29.5 70t29.5 70t73.5 28zM368 942q-23 0 -38 -14t-15 -37q0 -22 15 -36.5t38 -14.5t37.5 14.5t14.5 36.5q0 23 -14.5 37t-37.5 14zM719 0h-100l-78 190h-347l-79 -190h-100l313 748h78zM228 270h279
l-139 337z" />
    <glyph glyph-name="AE" unicode="&#xc6;" horiz-adv-x="1019" 
d="M610 667v-241h327v-79h-327v-266h371v-81h-463v190h-272l-126 -190h-111l499 748h473v-81h-371zM518 270v332l-219 -332h219z" />
    <glyph glyph-name="Ccedilla" unicode="&#xc7;" horiz-adv-x="808" 
d="M670 265l95 -8q-20 -119 -107 -190.5t-214 -76.5l-10 -44q51 -4 81 -28t30 -67q0 -48 -37 -74.5t-89 -26.5q-55 0 -97 21l16 53q32 -20 73 -20q28 0 48.5 12t20.5 36q0 50 -78 50q-11 0 -29 -4l25 93q-152 9 -247 111t-95 272q0 178 102.5 281t264.5 103q134 0 229 -75
t112 -202l-95 -9q-14 96 -82 150t-167 54q-121 0 -196 -81t-75 -221q0 -143 76.5 -222.5t196.5 -79.5q98 0 164.5 50.5t83.5 142.5z" />
    <glyph glyph-name="Egrave" unicode="&#xc8;" horiz-adv-x="593" 
d="M363 795h-82l-187 141h121zM553 667h-371v-241h327v-79h-327v-266h371v-81h-463v748h463v-81z" />
    <glyph glyph-name="Eacute" unicode="&#xc9;" horiz-adv-x="593" 
d="M365 795h-82l149 141h120zM553 667h-371v-241h327v-79h-327v-266h371v-81h-463v748h463v-81z" />
    <glyph glyph-name="Ecircumflex" unicode="&#xca;" horiz-adv-x="593" 
d="M486 795h-75l-85 90l-86 -90h-74l119 143h82zM553 667h-371v-241h327v-79h-327v-266h371v-81h-463v748h463v-81z" />
    <glyph glyph-name="Edieresis" unicode="&#xcb;" horiz-adv-x="593" 
d="M252 920q22 0 37 -15t15 -36q0 -22 -15 -37t-37 -15t-37 15t-15 37q0 21 15 36t37 15zM402 920q22 0 36.5 -15t14.5 -36q0 -22 -14.5 -37t-36.5 -15t-37.5 15t-15.5 37q0 21 15.5 36t37.5 15zM553 667h-371v-241h327v-79h-327v-266h371v-81h-463v748h463v-81z" />
    <glyph glyph-name="Igrave" unicode="&#xcc;" horiz-adv-x="271" 
d="M176 795h-82l-187 141h121zM182 0h-92v748h92v-748z" />
    <glyph glyph-name="Iacute" unicode="&#xcd;" horiz-adv-x="271" 
d="M179 795h-82l149 141h120zM182 0h-92v748h92v-748z" />
    <glyph glyph-name="Icircumflex" unicode="&#xce;" horiz-adv-x="271" 
d="M299 795h-75l-85 90l-86 -90h-74l119 143h82zM182 0h-92v748h92v-748z" />
    <glyph glyph-name="Idieresis" unicode="&#xcf;" horiz-adv-x="271" 
d="M65 920q22 0 37 -15t15 -36q0 -22 -15 -37t-37 -15t-37 15t-15 37q0 21 15 36t37 15zM215 920q22 0 36.5 -15t14.5 -36q0 -22 -14.5 -37t-36.5 -15t-37.5 15t-15.5 37q0 21 15.5 36t37.5 15zM182 0h-92v748h92v-748z" />
    <glyph glyph-name="Eth" unicode="&#xd0;" horiz-adv-x="794" 
d="M110 748h292q159 0 259.5 -100t100.5 -274q0 -173 -102 -273.5t-260 -100.5h-290v338h-107v71h107v339zM201 78h200q121 0 195.5 77.5t74.5 218.5t-73.5 218.5t-194.5 77.5h-202v-261h150v-71h-150v-260z" />
    <glyph glyph-name="Ntilde" unicode="&#xd1;" horiz-adv-x="750" 
d="M299 936q33 0 73.5 -31t62.5 -31q24 0 36.5 15t13.5 40h49q3 -50 -22 -85t-68 -35q-33 0 -73.5 30.5t-62.5 30.5q-47 0 -49 -54h-50q-3 50 22 85t68 35zM660 0h-78l-400 578v-578h-92v748h77l402 -579v579h91v-748z" />
    <glyph glyph-name="Ograve" unicode="&#xd2;" horiz-adv-x="866" 
d="M461 795h-82l-187 141h121zM433 758q163 0 269.5 -104.5t106.5 -279.5t-106.5 -279.5t-269.5 -104.5t-270 104.5t-107 279.5t107 279.5t270 104.5zM433 676q-124 0 -204 -81t-80 -221q0 -139 80.5 -220.5t203.5 -81.5t203 81.5t80 220.5q0 140 -80 221t-203 81z" />
    <glyph glyph-name="Oacute" unicode="&#xd3;" horiz-adv-x="866" 
d="M463 795h-82l149 141h120zM433 758q163 0 269.5 -104.5t106.5 -279.5t-106.5 -279.5t-269.5 -104.5t-270 104.5t-107 279.5t107 279.5t270 104.5zM433 676q-124 0 -204 -81t-80 -221q0 -139 80.5 -220.5t203.5 -81.5t203 81.5t80 220.5q0 140 -80 221t-203 81z" />
    <glyph glyph-name="Ocircumflex" unicode="&#xd4;" horiz-adv-x="866" 
d="M583 795h-75l-85 90l-86 -90h-74l119 143h82zM433 758q163 0 269.5 -104.5t106.5 -279.5t-106.5 -279.5t-269.5 -104.5t-270 104.5t-107 279.5t107 279.5t270 104.5zM433 676q-124 0 -204 -81t-80 -221q0 -139 80.5 -220.5t203.5 -81.5t203 81.5t80 220.5q0 140 -80 221
t-203 81z" />
    <glyph glyph-name="Otilde" unicode="&#xd5;" horiz-adv-x="866" 
d="M350 936q33 0 73.5 -31t62.5 -31q24 0 36.5 15t13.5 40h49q3 -50 -22 -85t-68 -35q-33 0 -73.5 30.5t-62.5 30.5q-47 0 -49 -54h-50q-3 50 22 85t68 35zM433 758q163 0 269.5 -104.5t106.5 -279.5t-106.5 -279.5t-269.5 -104.5t-270 104.5t-107 279.5t107 279.5
t270 104.5zM433 676q-124 0 -204 -81t-80 -221q0 -139 80.5 -220.5t203.5 -81.5t203 81.5t80 220.5q0 140 -80 221t-203 81z" />
    <glyph glyph-name="Odieresis" unicode="&#xd6;" horiz-adv-x="866" 
d="M349 920q22 0 37 -15t15 -36q0 -22 -15 -37t-37 -15t-37 15t-15 37q0 21 15 36t37 15zM499 920q22 0 36.5 -15t14.5 -36q0 -22 -14.5 -37t-36.5 -15t-37.5 15t-15.5 37q0 21 15.5 36t37.5 15zM433 758q163 0 269.5 -104.5t106.5 -279.5t-106.5 -279.5t-269.5 -104.5
t-270 104.5t-107 279.5t107 279.5t270 104.5zM433 676q-124 0 -204 -81t-80 -221q0 -139 80.5 -220.5t203.5 -81.5t203 81.5t80 220.5q0 140 -80 221t-203 81z" />
    <glyph glyph-name="multiply" unicode="&#xd7;" horiz-adv-x="524" 
d="M471 520l-151 -150l153 -154l-57 -58l-154 154l-155 -155l-57 58l155 155l-153 153l56 58l154 -155l152 152z" />
    <glyph glyph-name="Oslash" unicode="&#xd8;" horiz-adv-x="847" 
d="M748 742l-59 -76q120 -107 120 -292q0 -175 -106.5 -279.5t-269.5 -104.5q-121 0 -215 60l-65 -85l-56 43l66 86q-107 105 -107 280t107 279.5t270 104.5q111 0 199 -51l60 78zM149 374q0 -126 69 -208l362 473q-65 37 -147 37q-124 0 -204 -81t-80 -221zM433 72
q123 0 203 81.5t80 220.5t-80 221l-365 -476q70 -47 162 -47z" />
    <glyph glyph-name="Ugrave" unicode="&#xd9;" horiz-adv-x="764" 
d="M419 795h-82l-187 141h121zM680 748v-467q0 -139 -80 -215t-218 -76t-218 76t-80 215v467h91v-466q0 -103 54.5 -156.5t152.5 -53.5q97 0 152 54t55 156v466h91z" />
    <glyph glyph-name="Uacute" unicode="&#xda;" horiz-adv-x="764" 
d="M421 795h-82l149 141h120zM680 748v-467q0 -139 -80 -215t-218 -76t-218 76t-80 215v467h91v-466q0 -103 54.5 -156.5t152.5 -53.5q97 0 152 54t55 156v466h91z" />
    <glyph glyph-name="Ucircumflex" unicode="&#xdb;" horiz-adv-x="764" 
d="M542 795h-75l-85 90l-86 -90h-74l119 143h82zM680 748v-467q0 -139 -80 -215t-218 -76t-218 76t-80 215v467h91v-466q0 -103 54.5 -156.5t152.5 -53.5q97 0 152 54t55 156v466h91z" />
    <glyph glyph-name="Udieresis" unicode="&#xdc;" horiz-adv-x="764" 
d="M308 920q22 0 37 -15t15 -36q0 -22 -15 -37t-37 -15t-37 15t-15 37q0 21 15 36t37 15zM458 920q22 0 36.5 -15t14.5 -36q0 -22 -14.5 -37t-36.5 -15t-37.5 15t-15.5 37q0 21 15.5 36t37.5 15zM680 748v-467q0 -139 -80 -215t-218 -76t-218 76t-80 215v467h91v-466
q0 -103 54.5 -156.5t152.5 -53.5q97 0 152 54t55 156v466h91z" />
    <glyph glyph-name="Yacute" unicode="&#xdd;" horiz-adv-x="692" 
d="M386 795h-82l149 141h120zM392 311v-311h-91v311l-284 437h106l224 -347l222 347h106z" />
    <glyph glyph-name="Thorn" unicode="&#xde;" horiz-adv-x="635" 
d="M182 644h186q101 0 165 -59t64 -165t-64.5 -165.5t-164.5 -59.5h-186v-195h-92v748h92v-104zM181 562v-286h175q64 0 106 37.5t42 106.5q0 68 -42 105t-106 37h-175z" />
    <glyph glyph-name="germandbls" unicode="&#xdf;" horiz-adv-x="634" 
d="M295 785q95 0 150.5 -44t55.5 -116q0 -33 -14 -60.5t-31 -42.5t-31 -36t-14 -44t18 -43t43.5 -38.5t50.5 -40.5t43 -59t18 -84q0 -87 -59 -136t-154 -49q-60 0 -101 17l17 70q41 -15 77 -15q59 0 96 32t37 88q0 36 -18 65.5t-43.5 49.5l-51 39t-43.5 45t-18 57t14 56
t31.5 38.5t31.5 33.5t14 42q0 47 -30.5 74t-86.5 27q-57 0 -91.5 -32.5t-34.5 -86.5v-592h-86v595q0 85 58 137.5t152 52.5z" />
    <glyph glyph-name="agrave" unicode="&#xe0;" horiz-adv-x="542" 
d="M309 595h-68l-133 191h99zM264 519q94 0 144.5 -51.5t50.5 -146.5v-321h-87v60q-59 -70 -152 -70q-76 0 -121.5 38.5t-45.5 106.5q0 142 187 152l132 8v24q0 124 -107 124q-54 0 -82.5 -31t-28.5 -75l-87 4q0 70 54 124t143 54zM373 226l-122 -8q-111 -7 -111 -81
q0 -73 93 -73q63 0 101.5 34.5t38.5 106.5v21z" />
    <glyph glyph-name="aacute" unicode="&#xe1;" horiz-adv-x="542" 
d="M309 595h-69l103 191h98zM264 519q94 0 144.5 -51.5t50.5 -146.5v-321h-87v60q-59 -70 -152 -70q-76 0 -121.5 38.5t-45.5 106.5q0 142 187 152l132 8v24q0 124 -107 124q-54 0 -82.5 -31t-28.5 -75l-87 4q0 70 54 124t143 54zM373 226l-122 -8q-111 -7 -111 -81
q0 -73 93 -73q63 0 101.5 34.5t38.5 106.5v21z" />
    <glyph glyph-name="acircumflex" unicode="&#xe2;" horiz-adv-x="542" 
d="M438 596h-74l-87 110l-87 -110h-74l120 169h82zM264 519q94 0 144.5 -51.5t50.5 -146.5v-321h-87v60q-59 -70 -152 -70q-76 0 -121.5 38.5t-45.5 106.5q0 142 187 152l132 8v24q0 124 -107 124q-54 0 -82.5 -31t-28.5 -75l-87 4q0 70 54 124t143 54zM373 226l-122 -8
q-111 -7 -111 -81q0 -73 93 -73q63 0 101.5 34.5t38.5 106.5v21z" />
    <glyph glyph-name="atilde" unicode="&#xe3;" horiz-adv-x="542" 
d="M202 736q33 0 73.5 -30.5t62.5 -30.5q48 0 50 54h49q3 -49 -22 -84.5t-68 -35.5q-33 0 -73.5 30.5t-62.5 30.5q-47 0 -49 -54h-50q-3 50 22 85t68 35zM264 519q94 0 144.5 -51.5t50.5 -146.5v-321h-87v60q-59 -70 -152 -70q-76 0 -121.5 38.5t-45.5 106.5q0 142 187 152
l132 8v24q0 124 -107 124q-54 0 -82.5 -31t-28.5 -75l-87 4q0 70 54 124t143 54zM373 226l-122 -8q-111 -7 -111 -81q0 -73 93 -73q63 0 101.5 34.5t38.5 106.5v21z" />
    <glyph glyph-name="adieresis" unicode="&#xe4;" horiz-adv-x="542" 
d="M199 732q22 0 37 -15t15 -36q0 -22 -15 -36.5t-37 -14.5t-37 14.5t-15 36.5q0 21 15 36t37 15zM349 732q22 0 36.5 -15t14.5 -36q0 -22 -14.5 -36.5t-36.5 -14.5t-37.5 14.5t-15.5 36.5q0 21 15.5 36t37.5 15zM264 519q94 0 144.5 -51.5t50.5 -146.5v-321h-87v60
q-59 -70 -152 -70q-76 0 -121.5 38.5t-45.5 106.5q0 142 187 152l132 8v24q0 124 -107 124q-54 0 -82.5 -31t-28.5 -75l-87 4q0 70 54 124t143 54zM373 226l-122 -8q-111 -7 -111 -81q0 -73 93 -73q63 0 101.5 34.5t38.5 106.5v21z" />
    <glyph glyph-name="aring" unicode="&#xe5;" horiz-adv-x="542" 
d="M277 798q47 0 80 -30t33 -76t-33 -76.5t-80 -30.5q-48 0 -81.5 30.5t-33.5 76.5t33 76t82 30zM276 746q-26 0 -42 -15t-16 -39q0 -25 16 -40t42 -15t42 15t16 40q0 24 -16 39t-42 15zM264 519q94 0 144.5 -51.5t50.5 -146.5v-321h-87v60q-59 -70 -152 -70
q-76 0 -121.5 38.5t-45.5 106.5q0 142 187 152l132 8v24q0 124 -107 124q-54 0 -82.5 -31t-28.5 -75l-87 4q0 70 54 124t143 54zM373 226l-122 -8q-111 -7 -111 -81q0 -73 93 -73q63 0 101.5 34.5t38.5 106.5v21z" />
    <glyph glyph-name="ae" unicode="&#xe6;" horiz-adv-x="911" 
d="M859 222h-394q4 -73 47.5 -115t111.5 -42q57 0 94 24t49 67l87 -5q-17 -70 -79 -115.5t-149 -45.5q-137 0 -207 103q-65 -103 -196 -103q-78 0 -124 39t-46 108q0 140 187 150l132 8v18q0 62 -27 97t-80 35q-54 0 -82.5 -31.5t-28.5 -76.5l-87 4q0 70 54 124t143 54
q116 0 164 -89q69 89 196 89q109 0 172 -68t63 -182v-47zM623 444q-67 0 -110.5 -40t-47.5 -112h307q-2 69 -40 110.5t-109 41.5zM373 226l-122 -8q-111 -7 -111 -80t93 -73q60 0 100 33t40 107v21z" />
    <glyph glyph-name="ccedilla" unicode="&#xe7;" horiz-adv-x="578" 
d="M450 181l84 -8q-14 -80 -70.5 -129t-141.5 -53l-10 -44q51 -4 81 -28t30 -67q0 -48 -37 -74.5t-89 -26.5q-55 0 -97 21l16 53q32 -20 73 -20q28 0 48.5 12t20.5 36q0 50 -78 50q-11 0 -29 -4l25 92q-100 9 -161.5 79t-61.5 185q0 123 70 193.5t181 70.5q91 0 154.5 -51.5
t74.5 -139.5l-84 -7q-7 57 -47 90.5t-98 33.5q-73 0 -118 -50.5t-45 -139.5t45.5 -139.5t117.5 -50.5q60 0 98.5 31t47.5 85z" />
    <glyph glyph-name="egrave" unicode="&#xe8;" 
d="M266 595l-133 191h99l102 -191h-68zM538 222h-394q4 -73 48 -115t112 -42q56 0 93 24t50 67l86 -5q-16 -70 -78 -115.5t-149 -45.5q-112 0 -182.5 71.5t-70.5 193.5t70 193t181 71q109 0 171.5 -68t62.5 -182v-47zM303 444q-68 0 -111.5 -39.5t-47.5 -112.5h308
q-2 69 -40 110.5t-109 41.5z" />
    <glyph glyph-name="eacute" unicode="&#xe9;" 
d="M335 595h-69l103 191h98zM538 222h-394q4 -73 48 -115t112 -42q56 0 93 24t50 67l86 -5q-16 -70 -78 -115.5t-149 -45.5q-112 0 -182.5 71.5t-70.5 193.5t70 193t181 71q109 0 171.5 -68t62.5 -182v-47zM303 444q-68 0 -111.5 -39.5t-47.5 -112.5h308q-2 69 -40 110.5
t-109 41.5z" />
    <glyph glyph-name="ecircumflex" unicode="&#xea;" 
d="M215 596h-74l120 169h82l120 -169h-74l-87 110zM538 222h-394q4 -73 48 -115t112 -42q56 0 93 24t50 67l86 -5q-16 -70 -78 -115.5t-149 -45.5q-112 0 -182.5 71.5t-70.5 193.5t70 193t181 71q109 0 171.5 -68t62.5 -182v-47zM303 444q-68 0 -111.5 -39.5t-47.5 -112.5
h308q-2 69 -40 110.5t-109 41.5z" />
    <glyph glyph-name="edieresis" unicode="&#xeb;" 
d="M224 630q-22 0 -37 14.5t-15 36.5q0 21 15 36t37 15t37 -15t15 -36q0 -22 -15 -36.5t-37 -14.5zM374 630q-22 0 -37.5 14.5t-15.5 36.5q0 21 15.5 36t37.5 15t36.5 -15t14.5 -36q0 -22 -14.5 -36.5t-36.5 -14.5zM538 222h-394q4 -73 48 -115t112 -42q56 0 93 24t50 67
l86 -5q-16 -70 -78 -115.5t-149 -45.5q-112 0 -182.5 71.5t-70.5 193.5t70 193t181 71q109 0 171.5 -68t62.5 -182v-47zM303 444q-68 0 -111.5 -39.5t-47.5 -112.5h308q-2 69 -40 110.5t-109 41.5z" />
    <glyph glyph-name="igrave" unicode="&#xec;" horiz-adv-x="261" 
d="M165 595h-68l-133 191h99zM173 0h-86v510h86v-510z" />
    <glyph glyph-name="iacute" unicode="&#xed;" horiz-adv-x="261" 
d="M166 595h-69l103 191h98zM173 0h-86v510h86v-510z" />
    <glyph glyph-name="icircumflex" unicode="&#xee;" horiz-adv-x="261" 
d="M294 596h-74l-87 110l-87 -110h-74l120 169h82zM173 0h-86v510h86v-510z" />
    <glyph glyph-name="idieresis" unicode="&#xef;" horiz-adv-x="261" 
d="M55 732q22 0 37 -15t15 -36q0 -22 -15 -36.5t-37 -14.5t-37 14.5t-15 36.5q0 21 15 36t37 15zM205 732q22 0 36.5 -15t14.5 -36q0 -22 -14.5 -36.5t-36.5 -14.5t-37.5 14.5t-15.5 36.5q0 21 15.5 36t37.5 15zM173 0h-86v510h86v-510z" />
    <glyph glyph-name="eth" unicode="&#xf0;" horiz-adv-x="605" 
d="M488 755l-94 -74q148 -136 148 -424q0 -128 -68.5 -197.5t-178.5 -69.5q-103 0 -173 67t-70 180q0 111 69.5 179t172.5 68q80 0 144 -43q-30 126 -103 193l-95 -75l-39 40l86 68q-67 37 -158 38v72q127 0 221 -61l98 77zM298 65q70 0 115 46.5t45 126.5q0 78 -44 124.5
t-116 46.5q-71 0 -116 -47t-45 -125q0 -79 45 -125.5t116 -46.5z" />
    <glyph glyph-name="ntilde" unicode="&#xf1;" horiz-adv-x="609" 
d="M240 736q33 0 73.5 -30.5t62.5 -30.5q48 0 50 54h49q3 -49 -22 -84.5t-68 -35.5q-33 0 -73.5 30.5t-62.5 30.5q-47 0 -49 -54h-50q-3 50 22 85t68 35zM328 519q87 0 142.5 -57t55.5 -152v-310h-87v299q0 63 -35.5 101.5t-93.5 38.5q-60 0 -98.5 -41t-38.5 -100v-298h-86
v510h82v-76q20 37 61 61t98 24z" />
    <glyph glyph-name="ograve" unicode="&#xf2;" horiz-adv-x="631" 
d="M347 595h-68l-133 191h99zM315 519q113 0 187.5 -72.5t74.5 -191.5t-74.5 -192t-187.5 -73t-187.5 73t-74.5 192t74.5 191.5t187.5 72.5zM315 444q-76 0 -125.5 -51t-49.5 -138t49.5 -138.5t125.5 -51.5t125.5 51.5t49.5 138.5t-49.5 138t-125.5 51z" />
    <glyph glyph-name="oacute" unicode="&#xf3;" horiz-adv-x="631" 
d="M347 595h-69l103 191h98zM315 519q113 0 187.5 -72.5t74.5 -191.5t-74.5 -192t-187.5 -73t-187.5 73t-74.5 192t74.5 191.5t187.5 72.5zM315 444q-76 0 -125.5 -51t-49.5 -138t49.5 -138.5t125.5 -51.5t125.5 51.5t49.5 138.5t-49.5 138t-125.5 51z" />
    <glyph glyph-name="ocircumflex" unicode="&#xf4;" horiz-adv-x="631" 
d="M476 596h-74l-87 110l-87 -110h-74l120 169h82zM315 519q113 0 187.5 -72.5t74.5 -191.5t-74.5 -192t-187.5 -73t-187.5 73t-74.5 192t74.5 191.5t187.5 72.5zM315 444q-76 0 -125.5 -51t-49.5 -138t49.5 -138.5t125.5 -51.5t125.5 51.5t49.5 138.5t-49.5 138t-125.5 51z
" />
    <glyph glyph-name="otilde" unicode="&#xf5;" horiz-adv-x="631" 
d="M240 736q33 0 73.5 -30.5t62.5 -30.5q48 0 50 54h49q3 -49 -22 -84.5t-68 -35.5q-33 0 -73.5 30.5t-62.5 30.5q-47 0 -49 -54h-50q-3 50 22 85t68 35zM315 519q113 0 187.5 -72.5t74.5 -191.5t-74.5 -192t-187.5 -73t-187.5 73t-74.5 192t74.5 191.5t187.5 72.5zM315 444
q-76 0 -125.5 -51t-49.5 -138t49.5 -138.5t125.5 -51.5t125.5 51.5t49.5 138.5t-49.5 138t-125.5 51z" />
    <glyph glyph-name="odieresis" unicode="&#xf6;" horiz-adv-x="631" 
d="M237 732q22 0 37 -15t15 -36q0 -22 -15 -36.5t-37 -14.5t-37 14.5t-15 36.5q0 21 15 36t37 15zM387 732q22 0 36.5 -15t14.5 -36q0 -22 -14.5 -36.5t-36.5 -14.5t-37.5 14.5t-15.5 36.5q0 21 15.5 36t37.5 15zM315 519q113 0 187.5 -72.5t74.5 -191.5t-74.5 -192
t-187.5 -73t-187.5 73t-74.5 192t74.5 191.5t187.5 72.5zM315 444q-76 0 -125.5 -51t-49.5 -138t49.5 -138.5t125.5 -51.5t125.5 51.5t49.5 138.5t-49.5 138t-125.5 51z" />
    <glyph glyph-name="divide" unicode="&#xf7;" horiz-adv-x="546" 
d="M273 642q25 0 42.5 -17t17.5 -42t-17.5 -41.5t-42.5 -16.5q-24 0 -41 16.5t-17 41.5t17 42t41 17zM513 330h-480v81h480v-81zM273 217q25 0 42.5 -17.5t17.5 -42.5q0 -24 -17.5 -41.5t-42.5 -17.5q-24 0 -41 17.5t-17 41.5q0 25 17 42.5t41 17.5z" />
    <glyph glyph-name="oslash" unicode="&#xf8;" horiz-adv-x="631" 
d="M541 500l-40 -52q76 -74 76 -193t-74.5 -192t-187.5 -73q-75 0 -135 34l-44 -58l-48 36l43 57q-78 75 -78 196q0 119 74.5 191.5t187.5 72.5q79 0 138 -35l40 52zM140 255q0 -80 42 -130l224 296q-41 23 -91 23q-76 0 -125.5 -51t-49.5 -138zM315 65q76 0 125.5 51.5
t49.5 138.5q0 78 -39 126l-223 -294q41 -22 87 -22z" />
    <glyph glyph-name="ugrave" unicode="&#xf9;" 
d="M330 595h-68l-133 191h99zM504 0h-82v76q-16 -35 -55 -60.5t-98 -25.5q-85 0 -135.5 56.5t-50.5 148.5v315h86v-303q0 -63 31.5 -99.5t88.5 -36.5q59 0 94 41t35 100v298h86v-510z" />
    <glyph glyph-name="uacute" unicode="&#xfa;" 
d="M331 595h-69l103 191h98zM504 0h-82v76q-16 -35 -55 -60.5t-98 -25.5q-85 0 -135.5 56.5t-50.5 148.5v315h86v-303q0 -63 31.5 -99.5t88.5 -36.5q59 0 94 41t35 100v298h86v-510z" />
    <glyph glyph-name="ucircumflex" unicode="&#xfb;" 
d="M459 596h-74l-87 110l-87 -110h-74l120 169h82zM504 0h-82v76q-16 -35 -55 -60.5t-98 -25.5q-85 0 -135.5 56.5t-50.5 148.5v315h86v-303q0 -63 31.5 -99.5t88.5 -36.5q59 0 94 41t35 100v298h86v-510z" />
    <glyph glyph-name="udieresis" unicode="&#xfc;" 
d="M220 732q22 0 37 -15t15 -36q0 -22 -15 -36.5t-37 -14.5t-37 14.5t-15 36.5q0 21 15 36t37 15zM370 732q22 0 36.5 -15t14.5 -36q0 -22 -14.5 -36.5t-36.5 -14.5t-37.5 14.5t-15.5 36.5q0 21 15.5 36t37.5 15zM504 0h-82v76q-16 -35 -55 -60.5t-98 -25.5
q-85 0 -135.5 56.5t-50.5 148.5v315h86v-303q0 -63 31.5 -99.5t88.5 -36.5q59 0 94 41t35 100v298h86v-510z" />
    <glyph glyph-name="yacute" unicode="&#xfd;" horiz-adv-x="530" 
d="M299 595h-69l103 191h98zM193 -255h-95l121 283l-203 482h96l154 -385l153 385h96z" />
    <glyph glyph-name="thorn" unicode="&#xfe;" horiz-adv-x="648" 
d="M173 777v-346q23 39 69 63.5t108 24.5q107 0 176.5 -71.5t69.5 -192.5t-69.5 -193t-176.5 -72q-62 0 -108 24t-69 64v-333h-86v1032h86zM337 444q-73 0 -118 -45.5t-45 -129.5v-30q0 -83 45 -128.5t118 -45.5q75 0 123 50t48 139q0 90 -48 140t-123 50z" />
    <glyph glyph-name="ydieresis" unicode="&#xff;" horiz-adv-x="530" 
d="M188 732q22 0 37 -15t15 -36q0 -22 -15 -36.5t-37 -14.5t-37 14.5t-15 36.5q0 21 15 36t37 15zM338 732q22 0 36.5 -15t14.5 -36q0 -22 -14.5 -36.5t-36.5 -14.5t-37.5 14.5t-15.5 36.5q0 21 15.5 36t37.5 15zM193 -255h-95l121 283l-203 482h96l154 -385l153 385h96z
" />
    <glyph glyph-name="Amacron" unicode="&#x100;" horiz-adv-x="735" 
d="M500 834h-264v67h264v-67zM719 0h-100l-78 190h-347l-79 -190h-100l313 748h78zM228 270h279l-139 337z" />
    <glyph glyph-name="amacron" unicode="&#x101;" horiz-adv-x="542" 
d="M408 635h-264v67h264v-67zM264 519q94 0 144.5 -51.5t50.5 -146.5v-321h-87v60q-59 -70 -152 -70q-76 0 -121.5 38.5t-45.5 106.5q0 142 187 152l132 8v24q0 124 -107 124q-54 0 -82.5 -31t-28.5 -75l-87 4q0 70 54 124t143 54zM373 226l-122 -8q-111 -7 -111 -81
q0 -73 93 -73q63 0 101.5 34.5t38.5 106.5v21z" />
    <glyph glyph-name="Abreve" unicode="&#x102;" horiz-adv-x="735" 
d="M454 938h71q0 -64 -42.5 -98.5t-114.5 -34.5t-114.5 34.5t-42.5 98.5h71q0 -34 23 -53.5t63 -19.5q39 0 62.5 19.5t23.5 53.5zM719 0h-100l-78 190h-347l-79 -190h-100l313 748h78zM228 270h279l-139 337z" />
    <glyph glyph-name="abreve" unicode="&#x103;" horiz-adv-x="542" 
d="M362 732h71q0 -64 -42.5 -99t-114.5 -35t-114.5 35t-42.5 99h71q0 -34 23 -53.5t63 -19.5q39 0 62.5 19.5t23.5 53.5zM264 519q94 0 144.5 -51.5t50.5 -146.5v-321h-87v60q-59 -70 -152 -70q-76 0 -121.5 38.5t-45.5 106.5q0 142 187 152l132 8v24q0 124 -107 124
q-54 0 -82.5 -31t-28.5 -75l-87 4q0 70 54 124t143 54zM373 226l-122 -8q-111 -7 -111 -81q0 -73 93 -73q63 0 101.5 34.5t38.5 106.5v21z" />
    <glyph glyph-name="Aogonek" unicode="&#x104;" horiz-adv-x="735" 
d="M642 -140q30 0 56 12l9 -44q-37 -16 -79 -16q-47 0 -77.5 22t-30.5 62q0 66 97 110l-76 184h-347l-79 -190h-100l313 748h78l313 -748h-41q-47 -24 -69.5 -45t-22.5 -49q0 -46 56 -46zM507 270l-139 337l-140 -337h279z" />
    <glyph glyph-name="aogonek" unicode="&#x105;" horiz-adv-x="542" 
d="M456 -127l9 -44q-37 -16 -79 -16q-47 0 -77.5 22t-30.5 62q0 66 94 108v55q-59 -70 -152 -70q-76 0 -121.5 38.5t-45.5 106.5q0 142 187 152l132 8v24q0 124 -107 124q-54 0 -82.5 -31t-28.5 -75l-87 4q0 70 54 124t143 54q94 0 144.5 -51.5t50.5 -146.5v-321h-25
q-46 -23 -68 -44t-22 -49q0 -46 56 -46q30 0 56 12zM233 64q63 0 101.5 34.5t38.5 106.5v21l-122 -8q-111 -7 -111 -81q0 -73 93 -73z" />
    <glyph glyph-name="Cacute" unicode="&#x106;" horiz-adv-x="808" 
d="M454 795h-82l149 141h120zM423 758q134 0 229 -75t112 -202l-95 -9q-14 96 -82 150t-167 54q-121 0 -196 -81t-75 -221q0 -143 76.5 -222.5t196.5 -79.5q98 0 164.5 50.5t83.5 142.5l95 -8q-21 -123 -114 -195t-226 -72q-162 0 -265.5 103t-103.5 281t102.5 281
t264.5 103z" />
    <glyph glyph-name="cacute" unicode="&#x107;" horiz-adv-x="578" 
d="M329 595h-69l103 191h98zM304 519q91 0 154.5 -51.5t74.5 -139.5l-84 -7q-7 57 -47 90.5t-98 33.5q-73 0 -118 -50.5t-45 -139.5t45.5 -139.5t117.5 -50.5q60 0 98.5 31t47.5 85l84 -8q-14 -85 -76 -134t-154 -49q-110 0 -180.5 71t-70.5 194t70 193.5t181 70.5z" />
    <glyph glyph-name="Ccircumflex" unicode="&#x108;" horiz-adv-x="808" 
d="M574 795h-75l-85 90l-86 -90h-74l119 143h82zM423 758q134 0 229 -75t112 -202l-95 -9q-14 96 -82 150t-167 54q-121 0 -196 -81t-75 -221q0 -143 76.5 -222.5t196.5 -79.5q98 0 164.5 50.5t83.5 142.5l95 -8q-21 -123 -114 -195t-226 -72q-162 0 -265.5 103t-103.5 281
t102.5 281t264.5 103z" />
    <glyph glyph-name="ccircumflex" unicode="&#x109;" horiz-adv-x="578" 
d="M457 596h-74l-87 110l-87 -110h-74l120 169h82zM304 519q91 0 154.5 -51.5t74.5 -139.5l-84 -7q-7 57 -47 90.5t-98 33.5q-73 0 -118 -50.5t-45 -139.5t45.5 -139.5t117.5 -50.5q60 0 98.5 31t47.5 85l84 -8q-14 -85 -76 -134t-154 -49q-110 0 -180.5 71t-70.5 194
t70 193.5t181 70.5z" />
    <glyph glyph-name="Cdotaccent" unicode="&#x10a;" horiz-adv-x="808" 
d="M415 925q23 0 40 -17.5t17 -40.5q0 -25 -17 -41.5t-40 -16.5q-24 0 -41.5 17t-17.5 41q0 23 17.5 40.5t41.5 17.5zM423 758q134 0 229 -75t112 -202l-95 -9q-14 96 -82 150t-167 54q-121 0 -196 -81t-75 -221q0 -143 76.5 -222.5t196.5 -79.5q98 0 164.5 50.5t83.5 142.5
l95 -8q-21 -123 -114 -195t-226 -72q-162 0 -265.5 103t-103.5 281t102.5 281t264.5 103z" />
    <glyph glyph-name="cdotaccent" unicode="&#x10b;" horiz-adv-x="578" 
d="M297 738q23 0 40 -17t17 -40q0 -24 -17 -41t-40 -17q-24 0 -41.5 17t-17.5 41q0 23 17.5 40t41.5 17zM304 519q91 0 154.5 -51.5t74.5 -139.5l-84 -7q-7 57 -47 90.5t-98 33.5q-73 0 -118 -50.5t-45 -139.5t45.5 -139.5t117.5 -50.5q60 0 98.5 31t47.5 85l84 -8
q-14 -85 -76 -134t-154 -49q-110 0 -180.5 71t-70.5 194t70 193.5t181 70.5z" />
    <glyph glyph-name="Ccaron" unicode="&#x10c;" horiz-adv-x="808" 
d="M455 795h-82l-119 143h74l86 -90l85 90h75zM423 758q134 0 229 -75t112 -202l-95 -9q-14 96 -82 150t-167 54q-121 0 -196 -81t-75 -221q0 -143 76.5 -222.5t196.5 -79.5q98 0 164.5 50.5t83.5 142.5l95 -8q-21 -123 -114 -195t-226 -72q-162 0 -265.5 103t-103.5 281
t102.5 281t264.5 103z" />
    <glyph glyph-name="ccaron" unicode="&#x10d;" horiz-adv-x="578" 
d="M337 594h-82l-120 168h74l87 -110l87 110h74zM304 519q91 0 154.5 -51.5t74.5 -139.5l-84 -7q-7 57 -47 90.5t-98 33.5q-73 0 -118 -50.5t-45 -139.5t45.5 -139.5t117.5 -50.5q60 0 98.5 31t47.5 85l84 -8q-14 -85 -76 -134t-154 -49q-110 0 -180.5 71t-70.5 194
t70 193.5t181 70.5z" />
    <glyph glyph-name="Dcaron" unicode="&#x10e;" horiz-adv-x="799" 
d="M392 795h-82l-119 143h74l86 -90l85 90h75zM90 748h292q159 0 259.5 -100t100.5 -274q0 -173 -102 -273.5t-260 -100.5h-290v748zM181 670v-592h200q121 0 195.5 77.5t74.5 218.5t-73.5 218.5t-194.5 77.5h-202z" />
    <glyph glyph-name="dcaron" unicode="&#x10f;" horiz-adv-x="755" 
d="M475 777h86v-777h-81v83q-23 -41 -70.5 -67t-110.5 -26q-107 0 -176.5 71.5t-69.5 192.5t69.5 193t176.5 72q62 0 108 -24t68 -62v344zM684 750q26 0 40.5 -18.5t14.5 -48.5q0 -126 -113 -190v39q51 38 59 102q-24 0 -41 16.5t-17 40.5t16.5 41.5t40.5 17.5zM475 240v30
q0 84 -45.5 129t-118.5 45q-75 0 -123 -50t-48 -139q0 -90 48 -140t123 -50q73 0 118.5 45.5t45.5 129.5z" />
    <glyph glyph-name="Dcroat" unicode="&#x110;" horiz-adv-x="794" 
d="M110 748h292q159 0 259.5 -100t100.5 -274q0 -173 -102 -273.5t-260 -100.5h-290v338h-107v71h107v339zM201 78h200q121 0 195.5 77.5t74.5 218.5t-73.5 218.5t-194.5 77.5h-202v-261h150v-71h-150v-260z" />
    <glyph glyph-name="dcroat" unicode="&#x111;" horiz-adv-x="643" 
d="M642 612h-81v-612h-81v83q-23 -41 -70.5 -67t-110.5 -26q-107 0 -176.5 71.5t-69.5 192.5t69.5 193t176.5 72q62 0 108 -24t68 -62v179h-96v67h96v98h86v-98h81v-67zM475 240v30q0 84 -45.5 129t-118.5 45q-75 0 -123 -50t-48 -139q0 -90 48 -140t123 -50
q73 0 118.5 45.5t45.5 129.5z" />
    <glyph glyph-name="Emacron" unicode="&#x112;" horiz-adv-x="593" 
d="M457 834h-264v67h264v-67zM553 667h-371v-241h327v-79h-327v-266h371v-81h-463v748h463v-81z" />
    <glyph glyph-name="emacron" unicode="&#x113;" 
d="M434 635h-264v67h264v-67zM538 222h-394q4 -73 48 -115t112 -42q56 0 93 24t50 67l86 -5q-16 -70 -78 -115.5t-149 -45.5q-112 0 -182.5 71.5t-70.5 193.5t70 193t181 71q109 0 171.5 -68t62.5 -182v-47zM303 444q-68 0 -111.5 -39.5t-47.5 -112.5h308q-2 69 -40 110.5
t-109 41.5z" />
    <glyph glyph-name="Ebreve" unicode="&#x114;" horiz-adv-x="593" 
d="M411 938h71q0 -64 -42.5 -98.5t-114.5 -34.5t-114.5 34.5t-42.5 98.5h71q0 -34 23 -53.5t63 -19.5q39 0 62.5 19.5t23.5 53.5zM553 667h-371v-241h327v-79h-327v-266h371v-81h-463v748h463v-81z" />
    <glyph glyph-name="ebreve" unicode="&#x115;" 
d="M301 598q-72 0 -114.5 35t-42.5 99h71q0 -34 23 -53.5t63 -19.5q39 0 62.5 19.5t23.5 53.5h71q0 -64 -42.5 -99t-114.5 -35zM538 222h-394q4 -73 48 -115t112 -42q56 0 93 24t50 67l86 -5q-16 -70 -78 -115.5t-149 -45.5q-112 0 -182.5 71.5t-70.5 193.5t70 193t181 71
q109 0 171.5 -68t62.5 -182v-47zM303 444q-68 0 -111.5 -39.5t-47.5 -112.5h308q-2 69 -40 110.5t-109 41.5z" />
    <glyph glyph-name="Edotaccent" unicode="&#x116;" horiz-adv-x="593" 
d="M326 925q23 0 40 -17.5t17 -40.5q0 -25 -16.5 -41.5t-40.5 -16.5t-41.5 17t-17.5 41q0 23 17.5 40.5t41.5 17.5zM553 667h-371v-241h327v-79h-327v-266h371v-81h-463v748h463v-81z" />
    <glyph glyph-name="edotaccent" unicode="&#x117;" 
d="M303 623q-24 0 -41.5 17t-17.5 41q0 23 17.5 40t41.5 17q23 0 40 -17t17 -40q0 -24 -17 -41t-40 -17zM538 222h-394q4 -73 48 -115t112 -42q56 0 93 24t50 67l86 -5q-16 -70 -78 -115.5t-149 -45.5q-112 0 -182.5 71.5t-70.5 193.5t70 193t181 71q109 0 171.5 -68
t62.5 -182v-47zM303 444q-68 0 -111.5 -39.5t-47.5 -112.5h308q-2 69 -40 110.5t-109 41.5z" />
    <glyph glyph-name="Eogonek" unicode="&#x118;" horiz-adv-x="593" 
d="M562 -128l9 -44q-37 -16 -79 -16q-47 0 -77.5 22t-30.5 62q0 62 85 104h-379v748h463v-81h-371v-241h327v-79h-327v-266h371v-81h-11q-47 -24 -69.5 -45t-22.5 -49q0 -46 56 -46q30 0 56 12z" />
    <glyph glyph-name="eogonek" unicode="&#x119;" 
d="M538 222h-394q4 -73 48 -115t112 -42q56 0 93 24t50 67l86 -5q-13 -57 -57.5 -99t-110.5 -56q-45 -23 -66.5 -44t-21.5 -48q0 -46 56 -46q31 0 56 12l9 -44q-37 -16 -79 -16q-47 0 -77.5 22t-30.5 62q0 57 71 97q-103 8 -166 78t-63 186q0 122 70 193t181 71
q109 0 171.5 -68t62.5 -182v-47zM303 444q-68 0 -111.5 -39.5t-47.5 -112.5h308q-2 69 -40 110.5t-109 41.5z" />
    <glyph glyph-name="Ecaron" unicode="&#x11a;" horiz-adv-x="593" 
d="M367 795h-82l-119 143h74l86 -90l85 90h75zM553 667h-371v-241h327v-79h-327v-266h371v-81h-463v748h463v-81z" />
    <glyph glyph-name="ecaron" unicode="&#x11b;" 
d="M261 594l-120 168h74l87 -110l87 110h74l-120 -168h-82zM538 222h-394q4 -73 48 -115t112 -42q56 0 93 24t50 67l86 -5q-16 -70 -78 -115.5t-149 -45.5q-112 0 -182.5 71.5t-70.5 193.5t70 193t181 71q109 0 171.5 -68t62.5 -182v-47zM303 444q-68 0 -111.5 -39.5
t-47.5 -112.5h308q-2 69 -40 110.5t-109 41.5z" />
    <glyph glyph-name="Gcircumflex" unicode="&#x11c;" horiz-adv-x="821" 
d="M331 795h-74l119 143h82l119 -143h-75l-85 90zM767 380v-31q0 -166 -93.5 -262.5t-251.5 -96.5q-160 0 -263 103t-103 281t102 281t263 103q131 0 224.5 -70.5t115.5 -194.5l-95 -15q-14 92 -81 145t-165 53q-123 0 -197 -78.5t-74 -223.5q0 -144 74.5 -223t196.5 -79
q106 0 172 57t77 170h-246v81h344z" />
    <glyph glyph-name="gcircumflex" unicode="&#x11d;" horiz-adv-x="644" 
d="M477 596h-74l-87 110l-87 -110h-74l120 169h82zM299 519q63 0 110.5 -26t70.5 -67v84h81v-539q0 -109 -66.5 -172t-177.5 -63q-104 0 -167.5 49.5t-79.5 131.5l86 3q9 -51 52.5 -81t105.5 -30q73 0 117 41t44 115v111q-22 -38 -68 -62t-108 -24q-107 0 -176.5 72
t-69.5 193t69.5 192.5t176.5 71.5zM311 444q-75 0 -123 -50t-48 -140q0 -89 48 -139t123 -50q73 0 118.5 45t45.5 129v30q0 84 -45.5 129.5t-118.5 45.5z" />
    <glyph glyph-name="Gbreve" unicode="&#x11e;" horiz-adv-x="821" 
d="M416 805q-72 0 -114.5 34.5t-42.5 98.5h71q0 -34 23 -53.5t63 -19.5q39 0 62.5 19.5t23.5 53.5h71q0 -64 -42.5 -98.5t-114.5 -34.5zM767 380v-31q0 -166 -93.5 -262.5t-251.5 -96.5q-160 0 -263 103t-103 281t102 281t263 103q131 0 224.5 -70.5t115.5 -194.5l-95 -15
q-14 92 -81 145t-165 53q-123 0 -197 -78.5t-74 -223.5q0 -144 74.5 -223t196.5 -79q106 0 172 57t77 170h-246v81h344z" />
    <glyph glyph-name="gbreve" unicode="&#x11f;" horiz-adv-x="644" 
d="M402 732h71q0 -64 -42.5 -99t-114.5 -35t-114.5 35t-42.5 99h71q0 -34 23 -53.5t63 -19.5q39 0 62.5 19.5t23.5 53.5zM299 519q63 0 110.5 -26t70.5 -67v84h81v-539q0 -109 -66.5 -172t-177.5 -63q-104 0 -167.5 49.5t-79.5 131.5l86 3q9 -51 52.5 -81t105.5 -30
q73 0 117 41t44 115v111q-22 -38 -68 -62t-108 -24q-107 0 -176.5 72t-69.5 193t69.5 192.5t176.5 71.5zM311 444q-75 0 -123 -50t-48 -140q0 -89 48 -139t123 -50q73 0 118.5 45t45.5 129v30q0 84 -45.5 129.5t-118.5 45.5z" />
    <glyph glyph-name="Gdotaccent" unicode="&#x120;" horiz-adv-x="821" 
d="M417 809q-24 0 -41.5 17t-17.5 41q0 23 17.5 40.5t41.5 17.5q23 0 40 -17.5t17 -40.5q0 -25 -17 -41.5t-40 -16.5zM767 380v-31q0 -166 -93.5 -262.5t-251.5 -96.5q-160 0 -263 103t-103 281t102 281t263 103q131 0 224.5 -70.5t115.5 -194.5l-95 -15q-14 92 -81 145
t-165 53q-123 0 -197 -78.5t-74 -223.5q0 -144 74.5 -223t196.5 -79q106 0 172 57t77 170h-246v81h344z" />
    <glyph glyph-name="gdotaccent" unicode="&#x121;" horiz-adv-x="644" 
d="M317 738q23 0 40 -17t17 -40q0 -24 -17 -41t-40 -17q-24 0 -41.5 17t-17.5 41q0 23 17.5 40t41.5 17zM299 519q63 0 110.5 -26t70.5 -67v84h81v-539q0 -109 -66.5 -172t-177.5 -63q-104 0 -167.5 49.5t-79.5 131.5l86 3q9 -51 52.5 -81t105.5 -30q73 0 117 41t44 115v111
q-22 -38 -68 -62t-108 -24q-107 0 -176.5 72t-69.5 193t69.5 192.5t176.5 71.5zM311 444q-75 0 -123 -50t-48 -140q0 -89 48 -139t123 -50q73 0 118.5 45t45.5 129v30q0 84 -45.5 129.5t-118.5 45.5z" />
    <glyph glyph-name="Gcommaaccent" unicode="&#x122;" horiz-adv-x="821" 
d="M767 380v-31q0 -166 -93.5 -262.5t-251.5 -96.5q-160 0 -263 103t-103 281t102 281t263 103q131 0 224.5 -70.5t115.5 -194.5l-95 -15q-14 92 -81 145t-165 53q-123 0 -197 -78.5t-74 -223.5q0 -144 74.5 -223t196.5 -79q106 0 172 57t77 170h-246v81h344zM418 -46
q26 0 40.5 -18.5t14.5 -48.5q0 -126 -113 -190v39q51 38 59 102q-24 0 -41 16.5t-17 40.5t16.5 41.5t40.5 17.5z" />
    <glyph glyph-name="gcommaaccent" unicode="&#x123;" horiz-adv-x="644" 
d="M384 771q0 -126 -113 -190v39q51 38 59 102q-24 0 -41 16.5t-17 40.5t16.5 41.5t40.5 17.5q26 0 40.5 -18.5t14.5 -48.5zM561 510v-539q0 -109 -66.5 -172t-177.5 -63q-104 0 -167.5 49.5t-79.5 131.5l86 3q9 -51 52.5 -81t105.5 -30q73 0 117 41t44 115v111
q-22 -38 -68 -62t-108 -24q-107 0 -176.5 72t-69.5 193t69.5 192.5t176.5 71.5q63 0 110.5 -26t70.5 -67v84h81zM475 239v30q0 84 -45.5 129.5t-118.5 45.5q-75 0 -123 -50t-48 -140q0 -89 48 -139t123 -50q73 0 118.5 45t45.5 129z" />
    <glyph glyph-name="Hcircumflex" unicode="&#x124;" horiz-adv-x="753" 
d="M537 795h-75l-85 90l-86 -90h-74l119 143h82zM663 0h-91v347h-390v-347h-92v748h92v-319h390v319h91v-748z" />
    <glyph glyph-name="hcircumflex" unicode="&#x125;" horiz-adv-x="603" 
d="M292 798h-75l-85 90l-86 -90h-74l119 143h82zM173 777v-337q19 33 59.5 56t95.5 23q87 0 142.5 -57t55.5 -152v-310h-87v299q0 63 -35.5 101.5t-93.5 38.5q-60 0 -98.5 -41t-38.5 -100v-298h-86v777h86z" />
    <glyph glyph-name="Hbar" unicode="&#x126;" horiz-adv-x="763" 
d="M756 550h-88v-550h-91v347h-391v-347h-91v550h-88v70h88v128h91v-128h391v128h91v-128h88v-70zM577 550h-391v-121h391v121z" />
    <glyph glyph-name="hbar" unicode="&#x127;" horiz-adv-x="603" 
d="M328 519q87 0 142.5 -57t55.5 -152v-310h-87v299q0 63 -35.5 101.5t-93.5 38.5q-60 0 -98.5 -41t-38.5 -100v-298h-86v612h-82v67h82v98h86v-98h95v-67h-95v-172q19 33 59.5 56t95.5 23z" />
    <glyph glyph-name="Itilde" unicode="&#x128;" horiz-adv-x="271" 
d="M66 936q33 0 73.5 -31t62.5 -31q24 0 36.5 15t13.5 40h49q3 -50 -22 -85t-68 -35q-33 0 -73.5 30.5t-62.5 30.5q-47 0 -49 -54h-50q-3 50 22 85t68 35zM182 0h-92v748h92v-748z" />
    <glyph glyph-name="itilde" unicode="&#x129;" horiz-adv-x="261" 
d="M59 736q33 0 73.5 -30.5t62.5 -30.5q48 0 50 54h49q3 -49 -22 -84.5t-68 -35.5q-33 0 -73.5 30.5t-62.5 30.5q-47 0 -49 -54h-50q-3 50 22 85t68 35zM173 0h-86v510h86v-510z" />
    <glyph glyph-name="Imacron" unicode="&#x12a;" horiz-adv-x="271" 
d="M271 834h-264v67h264v-67zM182 0h-92v748h92v-748z" />
    <glyph glyph-name="imacron" unicode="&#x12b;" horiz-adv-x="261" 
d="M265 635h-264v67h264v-67zM173 0h-86v510h86v-510z" />
    <glyph glyph-name="Ibreve" unicode="&#x12c;" horiz-adv-x="271" 
d="M224 938h71q0 -64 -42.5 -98.5t-114.5 -34.5t-114.5 34.5t-42.5 98.5h71q0 -34 23 -53.5t63 -19.5q39 0 62.5 19.5t23.5 53.5zM182 0h-92v748h92v-748z" />
    <glyph glyph-name="ibreve" unicode="&#x12d;" horiz-adv-x="261" 
d="M218 732h71q0 -64 -42.5 -99t-114.5 -35t-114.5 35t-42.5 99h71q0 -34 23 -53.5t63 -19.5q39 0 62.5 19.5t23.5 53.5zM173 0h-86v510h86v-510z" />
    <glyph glyph-name="Iogonek" unicode="&#x12e;" horiz-adv-x="271" 
d="M182 0h-39q-46 -23 -68 -44t-22 -49q0 -46 56 -46q31 0 56 12l9 -44q-37 -16 -79 -16q-47 0 -77.5 22t-30.5 62q0 68 103 112v739h92v-748z" />
    <glyph glyph-name="iogonek" unicode="&#x12f;" horiz-adv-x="261" 
d="M134 623q-24 0 -41.5 17t-17.5 41q0 23 17.5 40t41.5 17q23 0 40 -17t17 -40q0 -24 -17 -41t-40 -17zM116 -139q30 0 56 12l9 -44q-37 -16 -79 -16q-47 0 -77.5 22t-30.5 62q0 66 93 108v505h86v-510h-23q-46 -23 -68 -44t-22 -49q0 -46 56 -46z" />
    <glyph glyph-name="Idotaccent" unicode="&#x130;" horiz-adv-x="271" 
d="M140 925q23 0 40 -17.5t17 -40.5q0 -25 -16.5 -41.5t-40.5 -16.5t-41.5 17t-17.5 41q0 23 17.5 40.5t41.5 17.5zM182 0h-92v748h92v-748z" />
    <glyph glyph-name="dotlessi" unicode="&#x131;" horiz-adv-x="261" 
d="M173 0h-86v510h86v-510z" />
    <glyph glyph-name="Jcircumflex" unicode="&#x134;" horiz-adv-x="579" 
d="M614 795h-75l-85 90l-86 -90h-74l119 143h82zM495 748v-511q0 -117 -62 -182t-171 -65q-106 0 -169.5 62.5t-69.5 170.5l92 15q4 -79 42.5 -122.5t104.5 -43.5q68 0 104.5 41.5t36.5 121.5v513h92z" />
    <glyph glyph-name="jcircumflex" unicode="&#x135;" horiz-adv-x="261" 
d="M291 596h-74l-87 110l-87 -110h-74l120 169h82zM175 510v-586q0 -93 -44 -139.5t-120 -46.5q-50 0 -83 21l32 71q24 -15 42 -15q87 0 87 105v590h86z" />
    <glyph glyph-name="Kcommaaccent" unicode="&#x136;" horiz-adv-x="675" 
d="M660 0h-112l-276 358l-90 -101v-257h-92v748h92v-355l319 355h118l-286 -318zM348 -41q26 0 40.5 -18.5t14.5 -48.5q0 -126 -113 -190v39q51 38 59 102q-24 0 -41 16.5t-17 40.5t16.5 41.5t40.5 17.5z" />
    <glyph glyph-name="kcommaaccent" unicode="&#x137;" horiz-adv-x="537" 
d="M528 0h-110l-190 225l-55 -54v-171h-86v777h86v-491l224 224h107l-215 -222zM287 -41q26 0 40.5 -18.5t14.5 -48.5q0 -126 -113 -190v39q51 38 59 102q-24 0 -41 16.5t-17 40.5t16.5 41.5t40.5 17.5z" />
    <glyph glyph-name="Lacute" unicode="&#x139;" 
d="M180 795h-82l149 141h120zM182 81h375v-81h-467v748h92v-667z" />
    <glyph glyph-name="lacute" unicode="&#x13a;" horiz-adv-x="261" 
d="M174 809h-82l149 141h120zM173 0h-86v777h86v-777z" />
    <glyph glyph-name="Lcommaaccent" unicode="&#x13b;" 
d="M557 81v-81h-467v748h92v-667h375zM332 -41q26 0 40.5 -18.5t14.5 -48.5q0 -126 -113 -190v39q51 38 59 102q-24 0 -41 16.5t-17 40.5t16.5 41.5t40.5 17.5z" />
    <glyph glyph-name="lcommaaccent" unicode="&#x13c;" horiz-adv-x="261" 
d="M173 0h-86v777h86v-777zM131 -41q26 0 40.5 -18.5t14.5 -48.5q0 -126 -113 -190v39q51 38 59 102q-24 0 -41 16.5t-17 40.5t16.5 41.5t40.5 17.5z" />
    <glyph glyph-name="Lcaron" unicode="&#x13d;" 
d="M574 683q0 -126 -113 -190v39q51 38 59 102q-24 0 -41 16.5t-17 40.5t16.5 41.5t40.5 17.5q26 0 40.5 -18.5t14.5 -48.5zM182 81h375v-81h-467v748h92v-667z" />
    <glyph glyph-name="lcaron" unicode="&#x13e;" horiz-adv-x="373" 
d="M87 777h86v-777h-86v777zM305 750q26 0 40.5 -18.5t14.5 -48.5q0 -126 -113 -190v39q51 38 59 102q-24 0 -41 16.5t-17 40.5t16.5 41.5t40.5 17.5z" />
    <glyph glyph-name="Ldot" unicode="&#x13f;" 
d="M182 81h375v-81h-467v748h92v-667zM440 445q25 0 42.5 -17.5t17.5 -42.5q0 -24 -17.5 -41.5t-42.5 -17.5q-24 0 -41 17.5t-17 41.5q0 25 17 42.5t41 17.5z" />
    <glyph glyph-name="ldot" unicode="&#x140;" horiz-adv-x="391" 
d="M173 0h-86v777h86v-777zM307 355q25 0 42.5 -17.5t17.5 -42.5q0 -24 -17.5 -41.5t-42.5 -17.5q-24 0 -41 17.5t-17 41.5q0 25 17 42.5t41 17.5z" />
    <glyph glyph-name="Lslash" unicode="&#x141;" horiz-adv-x="601" 
d="M569 81v-81h-466v267l-95 -30l-12 70l107 33v408h91v-380l112 35l11 -69l-123 -39v-214h375z" />
    <glyph glyph-name="lslash" unicode="&#x142;" horiz-adv-x="283" 
d="M186 277v-277h-86v246l-98 -35l-16 68l114 41v457h86v-426l96 35l16 -69z" />
    <glyph glyph-name="Nacute" unicode="&#x143;" horiz-adv-x="750" 
d="M412 795h-82l149 141h120zM660 0h-78l-400 578v-578h-92v748h77l402 -579v579h91v-748z" />
    <glyph glyph-name="nacute" unicode="&#x144;" horiz-adv-x="609" 
d="M347 595h-69l103 191h98zM328 519q87 0 142.5 -57t55.5 -152v-310h-87v299q0 63 -35.5 101.5t-93.5 38.5q-60 0 -98.5 -41t-38.5 -100v-298h-86v510h82v-76q20 37 61 61t98 24z" />
    <glyph glyph-name="Ncommaaccent" unicode="&#x145;" horiz-adv-x="750" 
d="M660 748v-748h-78l-400 578v-578h-92v748h77l402 -579v579h91zM382 -41q26 0 40.5 -18.5t14.5 -48.5q0 -126 -113 -190v39q51 38 59 102q-24 0 -41 16.5t-17 40.5t16.5 41.5t40.5 17.5z" />
    <glyph glyph-name="ncommaaccent" unicode="&#x146;" horiz-adv-x="609" 
d="M328 519q87 0 142.5 -57t55.5 -152v-310h-87v299q0 63 -35.5 101.5t-93.5 38.5q-60 0 -98.5 -41t-38.5 -100v-298h-86v510h82v-76q20 37 61 61t98 24zM310 -41q26 0 40.5 -18.5t14.5 -48.5q0 -126 -113 -190v39q51 38 59 102q-24 0 -41 16.5t-17 40.5t16.5 41.5
t40.5 17.5z" />
    <glyph glyph-name="Ncaron" unicode="&#x147;" horiz-adv-x="750" 
d="M413 795h-82l-119 143h74l86 -90l85 90h75zM660 0h-78l-400 578v-578h-92v748h77l402 -579v579h91v-748z" />
    <glyph glyph-name="ncaron" unicode="&#x148;" horiz-adv-x="609" 
d="M355 594h-82l-120 168h74l87 -110l87 110h74zM328 519q87 0 142.5 -57t55.5 -152v-310h-87v299q0 63 -35.5 101.5t-93.5 38.5q-60 0 -98.5 -41t-38.5 -100v-298h-86v510h82v-76q20 37 61 61t98 24z" />
    <glyph glyph-name="Eng" unicode="&#x14a;" horiz-adv-x="750" 
d="M660 748v-780q0 -101 -63 -162t-171 -61v81q67 0 105 42t38 121v30l-387 559v-578h-92v748h77l402 -579v579h91z" />
    <glyph glyph-name="eng" unicode="&#x14b;" horiz-adv-x="609" 
d="M328 519q87 0 142.5 -57t55.5 -152v-385q0 -88 -47.5 -136.5t-131.5 -48.5v75q42 0 67 28t25 80v376q0 63 -35.5 101.5t-93.5 38.5q-60 0 -98.5 -41t-38.5 -100v-298h-86v510h82v-76q20 37 61 61t98 24z" />
    <glyph glyph-name="Omacron" unicode="&#x14c;" horiz-adv-x="866" 
d="M555 834h-264v67h264v-67zM433 758q163 0 269.5 -104.5t106.5 -279.5t-106.5 -279.5t-269.5 -104.5t-270 104.5t-107 279.5t107 279.5t270 104.5zM433 676q-124 0 -204 -81t-80 -221q0 -139 80.5 -220.5t203.5 -81.5t203 81.5t80 220.5q0 140 -80 221t-203 81z" />
    <glyph glyph-name="omacron" unicode="&#x14d;" horiz-adv-x="631" 
d="M446 635h-264v67h264v-67zM315 519q113 0 187.5 -72.5t74.5 -191.5t-74.5 -192t-187.5 -73t-187.5 73t-74.5 192t74.5 191.5t187.5 72.5zM315 444q-76 0 -125.5 -51t-49.5 -138t49.5 -138.5t125.5 -51.5t125.5 51.5t49.5 138.5t-49.5 138t-125.5 51z" />
    <glyph glyph-name="Obreve" unicode="&#x14e;" horiz-adv-x="866" 
d="M509 938h71q0 -64 -42.5 -98.5t-114.5 -34.5t-114.5 34.5t-42.5 98.5h71q0 -34 23 -53.5t63 -19.5q39 0 62.5 19.5t23.5 53.5zM433 758q163 0 269.5 -104.5t106.5 -279.5t-106.5 -279.5t-269.5 -104.5t-270 104.5t-107 279.5t107 279.5t270 104.5zM433 676
q-124 0 -204 -81t-80 -221q0 -139 80.5 -220.5t203.5 -81.5t203 81.5t80 220.5q0 140 -80 221t-203 81z" />
    <glyph glyph-name="obreve" unicode="&#x14f;" horiz-adv-x="631" 
d="M400 732h71q0 -64 -42.5 -99t-114.5 -35t-114.5 35t-42.5 99h71q0 -34 23 -53.5t63 -19.5q39 0 62.5 19.5t23.5 53.5zM315 519q113 0 187.5 -72.5t74.5 -191.5t-74.5 -192t-187.5 -73t-187.5 73t-74.5 192t74.5 191.5t187.5 72.5zM315 444q-76 0 -125.5 -51t-49.5 -138
t49.5 -138.5t125.5 -51.5t125.5 51.5t49.5 138.5t-49.5 138t-125.5 51z" />
    <glyph glyph-name="Ohungarumlaut" unicode="&#x150;" horiz-adv-x="866" 
d="M366 798h-69l61 148h82zM536 798h-68l60 148h82zM433 758q163 0 269.5 -104.5t106.5 -279.5t-106.5 -279.5t-269.5 -104.5t-270 104.5t-107 279.5t107 279.5t270 104.5zM433 676q-124 0 -204 -81t-80 -221q0 -139 80.5 -220.5t203.5 -81.5t203 81.5t80 220.5
q0 140 -80 221t-203 81z" />
    <glyph glyph-name="ohungarumlaut" unicode="&#x151;" horiz-adv-x="631" 
d="M259 605h-68l62 158h82zM429 605h-68l62 158h83zM315 519q113 0 187.5 -72.5t74.5 -191.5t-74.5 -192t-187.5 -73t-187.5 73t-74.5 192t74.5 191.5t187.5 72.5zM315 444q-76 0 -125.5 -51t-49.5 -138t49.5 -138.5t125.5 -51.5t125.5 51.5t49.5 138.5t-49.5 138t-125.5 51
z" />
    <glyph glyph-name="OE" unicode="&#x152;" horiz-adv-x="1218" 
d="M808 667v-241h327v-79h-327v-5v-261h371v-81h-462v110q-106 -120 -284 -120q-163 0 -270 104.5t-107 279.5t107 279.5t270 104.5q178 0 284 -120v110h462v-81h-371zM433 72q123 0 203 81.5t80 220.5q0 140 -80 221t-203 81q-124 0 -204 -81t-80 -221q0 -139 80.5 -220.5
t203.5 -81.5z" />
    <glyph glyph-name="oe" unicode="&#x153;" horiz-adv-x="1028" 
d="M974 222h-393q4 -73 47.5 -115t111.5 -42q56 0 93 24t50 67l86 -5q-16 -70 -78 -115.5t-149 -45.5q-141 0 -211 107q-34 -51 -91 -79t-125 -28q-113 0 -187.5 73t-74.5 192t74.5 191.5t187.5 72.5q68 0 124.5 -28t91.5 -78q69 106 209 106q109 0 171.5 -68t62.5 -182v-47
zM315 65q72 0 120.5 46.5t53.5 125.5v18v18q-5 79 -53.5 125t-120.5 46q-76 0 -125.5 -51t-49.5 -138t49.5 -138.5t125.5 -51.5zM739 444q-68 0 -111 -40t-47 -112h307q-2 69 -40 110.5t-109 41.5z" />
    <glyph glyph-name="Racute" unicode="&#x154;" horiz-adv-x="686" 
d="M354 795h-82l149 141h120zM545 0l-168 300h-195v-300h-92v748h289q101 0 165.5 -58t64.5 -166q0 -80 -36.5 -133t-100.5 -76l176 -315h-103zM181 381h187q63 0 105 36.5t42 106.5t-42 106.5t-105 36.5h-187v-286z" />
    <glyph glyph-name="racute" unicode="&#x155;" horiz-adv-x="340" 
d="M229 595h-69l103 191h98zM321 516v-83q-67 0 -107.5 -40t-40.5 -100v-293h-86v510h84v-77q15 35 53 59t97 24z" />
    <glyph glyph-name="Rcommaaccent" unicode="&#x156;" horiz-adv-x="686" 
d="M648 0h-103l-168 300h-195v-300h-92v748h289q101 0 165.5 -58t64.5 -166q0 -80 -36.5 -133t-100.5 -76zM181 381h187q63 0 105 36.5t42 106.5t-42 106.5t-105 36.5h-187v-286zM353 -41q26 0 40.5 -18.5t14.5 -48.5q0 -126 -113 -190v39q51 38 59 102q-24 0 -41 16.5
t-17 40.5t16.5 41.5t40.5 17.5z" />
    <glyph glyph-name="rcommaaccent" unicode="&#x157;" horiz-adv-x="340" 
d="M171 510v-77q15 35 53 59t97 24v-83q-67 0 -107.5 -40t-40.5 -100v-293h-86v510h84zM132 -41q26 0 40.5 -18.5t14.5 -48.5q0 -126 -113 -190v39q51 38 59 102q-24 0 -41 16.5t-17 40.5t16.5 41.5t40.5 17.5z" />
    <glyph glyph-name="Rcaron" unicode="&#x158;" horiz-adv-x="686" 
d="M273 795l-119 143h74l86 -90l85 90h75l-119 -143h-82zM545 0l-168 300h-195v-300h-92v748h289q101 0 165.5 -58t64.5 -166q0 -80 -36.5 -133t-100.5 -76l176 -315h-103zM181 381h187q63 0 105 36.5t42 106.5t-42 106.5t-105 36.5h-187v-286z" />
    <glyph glyph-name="rcaron" unicode="&#x159;" horiz-adv-x="340" 
d="M237 594h-82l-120 168h74l87 -110l87 110h74zM321 516v-83q-67 0 -107.5 -40t-40.5 -100v-293h-86v510h84v-77q15 35 53 59t97 24z" />
    <glyph glyph-name="Sacute" unicode="&#x15a;" horiz-adv-x="656" 
d="M367 795h-82l149 141h120zM326 758q112 0 183 -55.5t75 -152.5l-93 -6q-4 63 -48 98.5t-115 35.5q-78 0 -120 -36t-42 -93q0 -61 41.5 -86t140.5 -47q67 -16 109.5 -31t79 -38.5t53 -58t16.5 -82.5q0 -107 -74.5 -161.5t-191.5 -54.5q-121 0 -200 58t-84 160l92 5
q5 -65 59 -104t133 -39t126 32t47 97q0 26 -9.5 46t-23 32.5t-43 24.5t-53 18.5t-69.5 17.5q-60 14 -96 26.5t-73.5 35.5t-55 59t-17.5 87q0 91 65.5 151.5t187.5 60.5z" />
    <glyph glyph-name="sacute" unicode="&#x15b;" horiz-adv-x="499" 
d="M274 595h-69l103 191h98zM244 518q82 1 130 -41.5t57 -111.5l-86 -5q-10 85 -104 84q-47 1 -72 -19t-25 -55q0 -9 1.5 -16t5.5 -13t7.5 -10.5t12 -8.5l14 -6.5t17 -5.5t18.5 -4.5t22 -5l23 -5.5q91 -22 134 -53t43 -94q0 -75 -52 -116.5t-141 -41.5q-86 0 -139 40.5
t-63 114.5l86 6q12 -86 118 -86q48 0 76.5 19.5t28.5 56.5t-25.5 52.5t-100.5 33.5q-37 9 -57 14.5t-46 16.5t-38.5 24.5t-22 35.5t-9.5 51q0 68 49.5 109t137.5 40z" />
    <glyph glyph-name="Scircumflex" unicode="&#x15c;" horiz-adv-x="656" 
d="M488 795h-75l-85 90l-86 -90h-74l119 143h82zM326 758q112 0 183 -55.5t75 -152.5l-93 -6q-4 63 -48 98.5t-115 35.5q-78 0 -120 -36t-42 -93q0 -61 41.5 -86t140.5 -47q67 -16 109.5 -31t79 -38.5t53 -58t16.5 -82.5q0 -107 -74.5 -161.5t-191.5 -54.5q-121 0 -200 58
t-84 160l92 5q5 -65 59 -104t133 -39t126 32t47 97q0 26 -9.5 46t-23 32.5t-43 24.5t-53 18.5t-69.5 17.5q-60 14 -96 26.5t-73.5 35.5t-55 59t-17.5 87q0 91 65.5 151.5t187.5 60.5z" />
    <glyph glyph-name="scircumflex" unicode="&#x15d;" horiz-adv-x="499" 
d="M403 596h-74l-87 110l-87 -110h-74l120 169h82zM244 518q82 1 130 -41.5t57 -111.5l-86 -5q-10 85 -104 84q-47 1 -72 -19t-25 -55q0 -9 1.5 -16t5.5 -13t7.5 -10.5t12 -8.5l14 -6.5t17 -5.5t18.5 -4.5t22 -5l23 -5.5q91 -22 134 -53t43 -94q0 -75 -52 -116.5t-141 -41.5
q-86 0 -139 40.5t-63 114.5l86 6q12 -86 118 -86q48 0 76.5 19.5t28.5 56.5t-25.5 52.5t-100.5 33.5q-37 9 -57 14.5t-46 16.5t-38.5 24.5t-22 35.5t-9.5 51q0 68 49.5 109t137.5 40z" />
    <glyph glyph-name="Scedilla" unicode="&#x15e;" horiz-adv-x="656" 
d="M606 206q0 -102 -68 -156t-177 -60l-10 -44q51 -4 81 -28t30 -67q0 -48 -37 -74.5t-89 -26.5q-55 0 -97 21l16 53q32 -20 73 -20q28 0 48.5 12t20.5 36q0 50 -78 50q-11 0 -29 -4l25 93q-112 6 -183 63t-76 154l92 5q5 -65 59 -104t133 -39t126 32t47 97q0 26 -9.5 46
t-23 32.5t-43 24.5t-53 18.5t-69.5 17.5q-60 14 -96 26.5t-73.5 35.5t-55 59t-17.5 87q0 91 65.5 151.5t187.5 60.5q112 0 183 -55.5t75 -152.5l-93 -6q-4 63 -48 98.5t-115 35.5q-78 0 -120 -36t-42 -93q0 -61 41.5 -86t140.5 -47q67 -16 109.5 -31t79 -38.5t53 -58
t16.5 -82.5z" />
    <glyph glyph-name="scedilla" unicode="&#x15f;" horiz-adv-x="499" 
d="M442 148q0 -70 -45.5 -111t-125.5 -46l-10 -45q51 -4 81 -28t30 -67q0 -48 -37 -74.5t-89 -26.5q-55 0 -97 21l16 53q32 -20 73 -20q28 0 48.5 12t20.5 36q0 50 -78 50q-11 0 -29 -4l25 93q-76 5 -122.5 45.5t-55.5 108.5l86 6q12 -86 118 -86q48 0 76.5 19.5t28.5 56.5
t-25.5 52.5t-100.5 33.5q-37 9 -57 14.5t-46 16.5t-38.5 24.5t-22 35.5t-9.5 51q0 68 49.5 109t137.5 40q82 1 130 -41.5t57 -111.5l-86 -5q-10 85 -104 84q-47 1 -72 -19t-25 -55q0 -9 1.5 -16t5.5 -13t7.5 -10.5t12 -8.5l14 -6.5t17 -5.5t18.5 -4.5t22 -5l23 -5.5
q91 -22 134 -53t43 -94z" />
    <glyph glyph-name="Scaron" unicode="&#x160;" horiz-adv-x="656" 
d="M369 795h-82l-119 143h74l86 -90l85 90h75zM326 758q112 0 183 -55.5t75 -152.5l-93 -6q-4 63 -48 98.5t-115 35.5q-78 0 -120 -36t-42 -93q0 -61 41.5 -86t140.5 -47q67 -16 109.5 -31t79 -38.5t53 -58t16.5 -82.5q0 -107 -74.5 -161.5t-191.5 -54.5q-121 0 -200 58
t-84 160l92 5q5 -65 59 -104t133 -39t126 32t47 97q0 26 -9.5 46t-23 32.5t-43 24.5t-53 18.5t-69.5 17.5q-60 14 -96 26.5t-73.5 35.5t-55 59t-17.5 87q0 91 65.5 151.5t187.5 60.5z" />
    <glyph glyph-name="scaron" unicode="&#x161;" horiz-adv-x="499" 
d="M283 594h-82l-120 168h74l87 -110l87 110h74zM244 518q82 1 130 -41.5t57 -111.5l-86 -5q-10 85 -104 84q-47 1 -72 -19t-25 -55q0 -9 1.5 -16t5.5 -13t7.5 -10.5t12 -8.5l14 -6.5t17 -5.5t18.5 -4.5t22 -5l23 -5.5q91 -22 134 -53t43 -94q0 -75 -52 -116.5t-141 -41.5
q-86 0 -139 40.5t-63 114.5l86 6q12 -86 118 -86q48 0 76.5 19.5t28.5 56.5t-25.5 52.5t-100.5 33.5q-37 9 -57 14.5t-46 16.5t-38.5 24.5t-22 35.5t-9.5 51q0 68 49.5 109t137.5 40z" />
    <glyph glyph-name="Tcaron" unicode="&#x164;" horiz-adv-x="682" 
d="M384 795h-82l-119 143h74l86 -90l85 90h75zM665 667h-278v-667h-92v667h-278v81h648v-81z" />
    <glyph glyph-name="tcaron" unicode="&#x165;" horiz-adv-x="512" 
d="M444 750q26 0 40.5 -18.5t14.5 -48.5q0 -126 -113 -190v39q51 38 59 102q-24 0 -41 16.5t-17 40.5t16.5 41.5t40.5 17.5zM195 435l-2 -265q0 -99 90 -99q20 0 50 5v-77q-34 -6 -69 -6q-73 0 -115.5 39.5t-41.5 120.5l1 282h-95v75h95l1 176h87l-1 -176h137v-75h-137z" />
    <glyph glyph-name="Tbar" unicode="&#x166;" horiz-adv-x="682" 
d="M387 667v-263h141v-71h-141v-333h-92v333h-140v71h140v263h-278v81h648v-81h-278z" />
    <glyph glyph-name="tbar" unicode="&#x167;" horiz-adv-x="357" 
d="M283 71q20 0 50 5v-77q-34 -6 -69 -6q-73 0 -115.5 39.5t-41.5 120.5v85h-94v63h95v134h-95v75h95l1 176h87l-1 -176h137v-75h-137l-1 -134h138v-63h-139v-68q0 -99 90 -99z" />
    <glyph glyph-name="Utilde" unicode="&#x168;" horiz-adv-x="764" 
d="M309 936q33 0 73.5 -31t62.5 -31q24 0 36.5 15t13.5 40h49q3 -50 -22 -85t-68 -35q-33 0 -73.5 30.5t-62.5 30.5q-47 0 -49 -54h-50q-3 50 22 85t68 35zM680 748v-467q0 -139 -80 -215t-218 -76t-218 76t-80 215v467h91v-466q0 -103 54.5 -156.5t152.5 -53.5q97 0 152 54
t55 156v466h91z" />
    <glyph glyph-name="utilde" unicode="&#x169;" 
d="M224 736q33 0 73.5 -30.5t62.5 -30.5q48 0 50 54h49q3 -49 -22 -84.5t-68 -35.5q-33 0 -73.5 30.5t-62.5 30.5q-47 0 -49 -54h-50q-3 50 22 85t68 35zM504 0h-82v76q-16 -35 -55 -60.5t-98 -25.5q-85 0 -135.5 56.5t-50.5 148.5v315h86v-303q0 -63 31.5 -99.5t88.5 -36.5
q59 0 94 41t35 100v298h86v-510z" />
    <glyph glyph-name="Umacron" unicode="&#x16a;" horiz-adv-x="764" 
d="M513 834h-264v67h264v-67zM680 748v-467q0 -139 -80 -215t-218 -76t-218 76t-80 215v467h91v-466q0 -103 54.5 -156.5t152.5 -53.5q97 0 152 54t55 156v466h91z" />
    <glyph glyph-name="umacron" unicode="&#x16b;" 
d="M430 635h-264v67h264v-67zM504 0h-82v76q-16 -35 -55 -60.5t-98 -25.5q-85 0 -135.5 56.5t-50.5 148.5v315h86v-303q0 -63 31.5 -99.5t88.5 -36.5q59 0 94 41t35 100v298h86v-510z" />
    <glyph glyph-name="Ubreve" unicode="&#x16c;" horiz-adv-x="764" 
d="M467 938h71q0 -64 -42.5 -98.5t-114.5 -34.5t-114.5 34.5t-42.5 98.5h71q0 -34 23 -53.5t63 -19.5q39 0 62.5 19.5t23.5 53.5zM680 748v-467q0 -139 -80 -215t-218 -76t-218 76t-80 215v467h91v-466q0 -103 54.5 -156.5t152.5 -53.5q97 0 152 54t55 156v466h91z" />
    <glyph glyph-name="ubreve" unicode="&#x16d;" 
d="M383 732h71q0 -64 -42.5 -99t-114.5 -35t-114.5 35t-42.5 99h71q0 -34 23 -53.5t63 -19.5q39 0 62.5 19.5t23.5 53.5zM504 0h-82v76q-16 -35 -55 -60.5t-98 -25.5q-85 0 -135.5 56.5t-50.5 148.5v315h86v-303q0 -63 31.5 -99.5t88.5 -36.5q59 0 94 41t35 100v298h86v-510
z" />
    <glyph glyph-name="Uring" unicode="&#x16e;" horiz-adv-x="764" 
d="M381 989q43 0 73 -28t30 -70t-30 -70t-73 -28q-44 0 -73.5 28t-29.5 70t29.5 70t73.5 28zM381 942q-23 0 -38 -14t-15 -37q0 -22 15 -36.5t38 -14.5t37.5 14.5t14.5 36.5q0 23 -14.5 37t-37.5 14zM680 748v-467q0 -139 -80 -215t-218 -76t-218 76t-80 215v467h91v-466
q0 -103 54.5 -156.5t152.5 -53.5q97 0 152 54t55 156v466h91z" />
    <glyph glyph-name="uring" unicode="&#x16f;" 
d="M298 798q47 0 80 -30t33 -76t-33 -76.5t-80 -30.5q-48 0 -81.5 30.5t-33.5 76.5t33 76t82 30zM297 746q-26 0 -42 -15t-16 -39q0 -25 16 -40t42 -15t42 15t16 40q0 24 -16 39t-42 15zM504 0h-82v76q-16 -35 -55 -60.5t-98 -25.5q-85 0 -135.5 56.5t-50.5 148.5v315h86
v-303q0 -63 31.5 -99.5t88.5 -36.5q59 0 94 41t35 100v298h86v-510z" />
    <glyph glyph-name="Uhungarumlaut" unicode="&#x170;" horiz-adv-x="764" 
d="M324 798h-69l61 148h82zM494 798h-68l60 148h82zM680 748v-467q0 -139 -80 -215t-218 -76t-218 76t-80 215v467h91v-466q0 -103 54.5 -156.5t152.5 -53.5q97 0 152 54t55 156v466h91z" />
    <glyph glyph-name="uhungarumlaut" unicode="&#x171;" 
d="M242 605h-68l62 158h82zM412 605h-68l62 158h83zM504 0h-82v76q-16 -35 -55 -60.5t-98 -25.5q-85 0 -135.5 56.5t-50.5 148.5v315h86v-303q0 -63 31.5 -99.5t88.5 -36.5q59 0 94 41t35 100v298h86v-510z" />
    <glyph glyph-name="Uogonek" unicode="&#x172;" horiz-adv-x="764" 
d="M680 748v-467q0 -116 -56 -188.5t-157 -93.5q-44 -23 -65.5 -44t-21.5 -48q0 -46 56 -46q30 0 56 12l9 -44q-37 -16 -79 -16q-47 0 -77.5 22t-30.5 62q0 55 64 93q-137 1 -215.5 77t-78.5 214v467h91v-466q0 -103 54.5 -156.5t152.5 -53.5q97 0 152 54t55 156v466h91z
" />
    <glyph glyph-name="uogonek" unicode="&#x173;" 
d="M505 -128l9 -44q-37 -16 -79 -16q-47 0 -77.5 22t-30.5 62q0 65 95 109v71q-16 -35 -55 -60.5t-98 -25.5q-85 0 -135.5 56.5t-50.5 148.5v315h86v-303q0 -63 31.5 -99.5t88.5 -36.5q59 0 94 41t35 100v298h86v-510h-19q-47 -24 -69.5 -45t-22.5 -49q0 -46 56 -46
q31 0 56 12z" />
    <glyph glyph-name="Wcircumflex" unicode="&#x174;" horiz-adv-x="1118" 
d="M719 795h-75l-85 90l-86 -90h-74l119 143h82zM837 0h-77l-201 580l-200 -580h-77l-262 748h99l203 -587l200 587h75l201 -587l202 587h98z" />
    <glyph glyph-name="wcircumflex" unicode="&#x175;" horiz-adv-x="820" 
d="M571 596h-74l-87 110l-87 -110h-74l120 169h82zM616 0h-69l-137 365l-137 -365h-69l-194 510h94l137 -370l138 370h61l139 -370l138 370h93z" />
    <glyph glyph-name="Ycircumflex" unicode="&#x176;" horiz-adv-x="692" 
d="M507 795h-75l-85 90l-86 -90h-74l119 143h82zM392 311v-311h-91v311l-284 437h106l224 -347l222 347h106z" />
    <glyph glyph-name="ycircumflex" unicode="&#x177;" horiz-adv-x="530" 
d="M427 596h-74l-87 110l-87 -110h-74l120 169h82zM193 -255h-95l121 283l-203 482h96l154 -385l153 385h96z" />
    <glyph glyph-name="Ydieresis" unicode="&#x178;" horiz-adv-x="692" 
d="M272 920q22 0 37 -15t15 -36q0 -22 -15 -37t-37 -15t-37 15t-15 37q0 21 15 36t37 15zM422 920q22 0 36.5 -15t14.5 -36q0 -22 -14.5 -37t-36.5 -15t-37.5 15t-15.5 37q0 21 15.5 36t37.5 15zM392 311v-311h-91v311l-284 437h106l224 -347l222 347h106z" />
    <glyph glyph-name="Zacute" unicode="&#x179;" horiz-adv-x="618" 
d="M349 795h-82l149 141h120zM575 679l-422 -598h430v-81h-547v69l421 598h-407v81h525v-69z" />
    <glyph glyph-name="zacute" unicode="&#x17a;" horiz-adv-x="448" 
d="M260 595h-69l103 191h98zM405 452l-271 -382h283v-70h-384v57l272 382h-266v71h366v-58z" />
    <glyph glyph-name="Zdotaccent" unicode="&#x17b;" horiz-adv-x="618" 
d="M310 925q23 0 40 -17.5t17 -40.5q0 -25 -16.5 -41.5t-40.5 -16.5t-41.5 17t-17.5 41q0 23 17.5 40.5t41.5 17.5zM575 679l-422 -598h430v-81h-547v69l421 598h-407v81h525v-69z" />
    <glyph glyph-name="zdotaccent" unicode="&#x17c;" horiz-adv-x="448" 
d="M228 738q23 0 40 -17t17 -40q0 -24 -17 -41t-40 -17q-24 0 -41.5 17t-17.5 41q0 23 17.5 40t41.5 17zM405 452l-271 -382h283v-70h-384v57l272 382h-266v71h366v-58z" />
    <glyph glyph-name="Zcaron" unicode="&#x17d;" horiz-adv-x="618" 
d="M350 795h-82l-119 143h74l86 -90l85 90h75zM575 679l-422 -598h430v-81h-547v69l421 598h-407v81h525v-69z" />
    <glyph glyph-name="zcaron" unicode="&#x17e;" horiz-adv-x="448" 
d="M268 594h-82l-120 168h74l87 -110l87 110h74zM405 452l-271 -382h283v-70h-384v57l272 382h-266v71h366v-58z" />
    <glyph glyph-name="florin" unicode="&#x192;" horiz-adv-x="432" 
d="M339 786q78 0 133 -44l-36 -71q-36 38 -89 38q-38 0 -60 -21.5t-30 -69.5l-19 -108h150v-73h-163l-103 -579h-88l102 579h-109v73h122l22 123q27 153 168 153z" />
    <glyph glyph-name="Aringacute" unicode="&#x1fa;" horiz-adv-x="734" 
d="M373 772q-44 0 -73.5 28t-29.5 70q0 56 48 84l130 109h111l-151 -101q30 -10 48.5 -34.5t18.5 -57.5q0 -42 -29.5 -70t-72.5 -28zM425 870q0 23 -14.5 37t-37.5 14t-38 -14t-15 -37q0 -22 15 -36.5t38 -14.5t37.5 14.5t14.5 36.5zM719 0h-100l-78 190h-347l-79 -190h-100
l313 748h78zM507 270l-139 337l-140 -337h279z" />
    <glyph glyph-name="aringacute" unicode="&#x1fb;" horiz-adv-x="542" 
d="M273 582q-44 0 -74 28t-30 70q0 53 43 81l136 112h111l-152 -100q31 -10 49.5 -34.5t18.5 -58.5q0 -42 -29.5 -70t-72.5 -28zM325 680q0 23 -14.5 37t-37.5 14t-38 -14t-15 -37q0 -22 15 -36.5t38 -14.5t37.5 14.5t14.5 36.5zM264 519q94 0 144.5 -51.5t50.5 -146.5v-321
h-87v60q-59 -70 -152 -70q-76 0 -121.5 38.5t-45.5 106.5q0 142 187 152l132 8v24q0 124 -107 124q-54 0 -82.5 -31t-28.5 -75l-87 4q0 70 54 124t143 54zM373 226l-122 -8q-111 -7 -111 -81q0 -73 93 -73q63 0 101.5 34.5t38.5 106.5v21z" />
    <glyph glyph-name="AEacute" unicode="&#x1fc;" horiz-adv-x="1019" 
d="M692 795h-82l149 141h120zM610 667v-241h327v-79h-327v-266h371v-81h-463v190h-272l-126 -190h-111l499 748h473v-81h-371zM518 270v332l-219 -332h219z" />
    <glyph glyph-name="aeacute" unicode="&#x1fd;" horiz-adv-x="911" 
d="M472 595h-69l103 191h98zM859 222h-394q4 -73 47.5 -115t111.5 -42q57 0 94 24t49 67l87 -5q-17 -70 -79 -115.5t-149 -45.5q-137 0 -207 103q-65 -103 -196 -103q-78 0 -124 39t-46 108q0 140 187 150l132 8v18q0 62 -27 97t-80 35q-54 0 -82.5 -31.5t-28.5 -76.5l-87 4
q0 70 54 124t143 54q116 0 164 -89q69 89 196 89q109 0 172 -68t63 -182v-47zM623 444q-67 0 -110.5 -40t-47.5 -112h307q-2 69 -40 110.5t-109 41.5zM373 226l-122 -8q-111 -7 -111 -80t93 -73q60 0 100 33t40 107v21z" />
    <glyph glyph-name="Oslashacute" unicode="&#x1fe;" horiz-adv-x="847" 
d="M463 795h-82l149 141h120zM748 742l-59 -76q120 -107 120 -292q0 -175 -106.5 -279.5t-269.5 -104.5q-121 0 -215 60l-65 -85l-56 43l66 86q-107 105 -107 280t107 279.5t270 104.5q111 0 199 -51l60 78zM149 374q0 -126 69 -208l362 473q-65 37 -147 37q-124 0 -204 -81
t-80 -221zM433 72q123 0 203 81.5t80 220.5t-80 221l-365 -476q70 -47 162 -47z" />
    <glyph glyph-name="oslashacute" unicode="&#x1ff;" horiz-adv-x="631" 
d="M347 595h-69l103 191h98zM541 500l-40 -52q76 -74 76 -193t-74.5 -192t-187.5 -73q-75 0 -135 34l-44 -58l-48 36l43 57q-78 75 -78 196q0 119 74.5 191.5t187.5 72.5q79 0 138 -35l40 52zM140 255q0 -80 42 -130l224 296q-41 23 -91 23q-76 0 -125.5 -51t-49.5 -138z
M315 65q76 0 125.5 51.5t49.5 138.5q0 78 -39 126l-223 -294q41 -22 87 -22z" />
    <glyph glyph-name="Scommaaccent" unicode="&#x218;" horiz-adv-x="656" 
d="M348 416q67 -16 109.5 -31t79 -38.5t53 -58t16.5 -82.5q0 -107 -74.5 -161.5t-191.5 -54.5q-121 0 -200 58t-84 160l92 5q5 -65 59 -104t133 -39t126 32t47 97q0 26 -9.5 46t-23 32.5t-43 24.5t-53 18.5t-69.5 17.5q-60 14 -96 26.5t-73.5 35.5t-55 59t-17.5 87
q0 91 65.5 151.5t187.5 60.5q112 0 183 -55.5t75 -152.5l-93 -6q-4 63 -48 98.5t-115 35.5q-78 0 -120 -36t-42 -93q0 -61 41.5 -86t140.5 -47zM338 -46q26 0 40.5 -18.5t14.5 -48.5q0 -126 -113 -190v39q51 38 59 102q-24 0 -41 16.5t-17 40.5t16.5 41.5t40.5 17.5z" />
    <glyph glyph-name="scommaaccent" unicode="&#x219;" horiz-adv-x="499" 
d="M265 295q91 -22 134 -53t43 -94q0 -75 -52 -116.5t-141 -41.5q-86 0 -139 40.5t-63 114.5l86 6q12 -86 118 -86q48 0 76.5 19.5t28.5 56.5t-25.5 52.5t-100.5 33.5q-37 9 -57 14.5t-46 16.5t-38.5 24.5t-22 35.5t-9.5 51q0 68 49.5 109t137.5 40q82 1 130 -41.5
t57 -111.5l-86 -5q-10 85 -104 84q-47 1 -72 -19t-25 -55q0 -9 1.5 -16t5.5 -13t7.5 -10.5t12 -8.5l14 -6.5t17 -5.5t18.5 -4.5t22 -5zM247 -46q26 0 40.5 -18.5t14.5 -48.5q0 -126 -113 -190v39q51 38 59 102q-24 0 -41 16.5t-17 40.5t16.5 41.5t40.5 17.5z" />
    <glyph glyph-name="uni021A" unicode="&#x21a;" horiz-adv-x="682" 
d="M665 748v-81h-278v-667h-92v667h-278v81h648zM342 -41q26 0 40.5 -18.5t14.5 -48.5q0 -126 -113 -190v39q51 38 59 102q-24 0 -41 16.5t-17 40.5t16.5 41.5t40.5 17.5z" />
    <glyph glyph-name="uni021B" unicode="&#x21b;" horiz-adv-x="357" 
d="M283 71q20 0 50 5v-77q-34 -6 -69 -6q-73 0 -115.5 39.5t-41.5 120.5l1 282h-95v75h95l1 176h87l-1 -176h137v-75h-137l-2 -265q0 -99 90 -99zM212 -49q26 0 40.5 -18.5t14.5 -48.5q0 -126 -113 -190v39q51 38 59 102q-24 0 -41 16.5t-17 40.5t16.5 41.5t40.5 17.5z" />
    <glyph glyph-name="dotlessj" unicode="&#x237;" horiz-adv-x="261" 
d="M175 510v-586q0 -93 -44 -139.5t-120 -46.5q-50 0 -83 21l32 71q24 -15 42 -15q87 0 87 105v590h86z" />
    <glyph glyph-name="circumflex" unicode="&#x2c6;" horiz-adv-x="353" 
d="M338 596h-74l-87 110l-87 -110h-74l120 169h82z" />
    <glyph glyph-name="caron" unicode="&#x2c7;" horiz-adv-x="353" 
d="M218 594h-82l-120 168h74l87 -110l87 110h74z" />
    <glyph glyph-name="breve" unicode="&#x2d8;" horiz-adv-x="353" 
d="M262 732h71q0 -64 -42.5 -99t-114.5 -35t-114.5 35t-42.5 99h71q0 -34 23 -53.5t63 -19.5q39 0 62.5 19.5t23.5 53.5z" />
    <glyph glyph-name="dotaccent" unicode="&#x2d9;" horiz-adv-x="155" 
d="M78 738q23 0 40 -17t17 -40q0 -24 -17 -41t-40 -17q-24 0 -41.5 17t-17.5 41q0 23 17.5 40t41.5 17z" />
    <glyph glyph-name="ring" unicode="&#x2da;" horiz-adv-x="265" 
d="M134 798q47 0 80 -30t33 -76t-33 -76.5t-80 -30.5q-48 0 -81.5 30.5t-33.5 76.5t33 76t82 30zM133 746q-26 0 -42 -15t-16 -39q0 -25 16 -40t42 -15t42 15t16 40q0 24 -16 39t-42 15z" />
    <glyph glyph-name="ogonek" unicode="&#x2db;" horiz-adv-x="232" 
d="M173 28l14 -24q-48 -24 -71 -45.5t-23 -49.5q0 -46 56 -46q31 0 56 12l9 -44q-37 -16 -79 -16q-47 0 -77.5 22t-30.5 62q0 44 37.5 74.5t108.5 54.5z" />
    <glyph glyph-name="tilde" unicode="&#x2dc;" horiz-adv-x="361" 
d="M108 736q33 0 73.5 -30.5t62.5 -30.5q48 0 50 54h49q3 -49 -22 -84.5t-68 -35.5q-33 0 -73.5 30.5t-62.5 30.5q-47 0 -49 -54h-50q-3 50 22 85t68 35z" />
    <glyph glyph-name="hungarumlaut" unicode="&#x2dd;" horiz-adv-x="349" 
d="M86 605h-68l62 158h82zM256 605h-68l62 158h83z" />
    <glyph glyph-name="uni0326" unicode="&#x326;" horiz-adv-x="0" 
d="M102 -41q26 0 40.5 -18.5t14.5 -48.5q0 -125 -113 -189v38q51 38 59 102q-24 0 -41 16.5t-17 40.5q0 25 16 42t41 17z" />
    <glyph glyph-name="Omega" unicode="&#x3a9;" horiz-adv-x="784" 
d="M392 719q151 0 237.5 -97t86.5 -248q0 -94 -43 -175.5t-97 -131.5h185v-67h-280v61q62 43 112 129.5t50 180.5q0 124 -67 202.5t-184 78.5q-118 0 -185 -78.5t-67 -202.5q0 -94 50 -180.5t112 -129.5v-61h-279v67h184q-54 50 -96.5 131.5t-42.5 175.5q0 150 86.5 247.5
t237.5 97.5z" />
    <glyph glyph-name="mu" unicode="&#x3bc;" horiz-adv-x="596" 
d="M508 510v-510h-81v76q-16 -35 -55 -60.5t-98 -25.5q-57 0 -101 27v-272h-86v756h1v9h85v-303q0 -63 32 -99.5t89 -36.5q59 0 93.5 41t34.5 100v298h86z" />
    <glyph glyph-name="pi" unicode="&#x3c0;" horiz-adv-x="660" 
d="M564 524l67 -39q-43 -104 -141 -104h-20l-32 -261q-8 -55 38 -55q24 0 53 22l39 -51q-46 -44 -105 -44q-108 0 -95 124l32 265h-124l-28 -219q-11 -89 -47 -162h-81q44 91 57 177l25 204h-36q-53 0 -96 -43l-40 59q33 30 66 45.5t86 15.5h267q46 0 71.5 16t43.5 50z" />
    <glyph glyph-name="Wgrave" unicode="&#x1e80;" horiz-adv-x="1118" 
d="M597 795h-82l-187 141h121zM837 0h-77l-201 580l-200 -580h-77l-262 748h99l203 -587l200 587h75l201 -587l202 587h98z" />
    <glyph glyph-name="wgrave" unicode="&#x1e81;" horiz-adv-x="820" 
d="M442 595h-68l-133 191h99zM616 0h-69l-137 365l-137 -365h-69l-194 510h94l137 -370l138 370h61l139 -370l138 370h93z" />
    <glyph glyph-name="Wacute" unicode="&#x1e82;" horiz-adv-x="1118" 
d="M599 795h-82l149 141h120zM837 0h-77l-201 580l-200 -580h-77l-262 748h99l203 -587l200 587h75l201 -587l202 587h98z" />
    <glyph glyph-name="wacute" unicode="&#x1e83;" horiz-adv-x="820" 
d="M443 595h-69l103 191h98zM616 0h-69l-137 365l-137 -365h-69l-194 510h94l137 -370l138 370h61l139 -370l138 370h93z" />
    <glyph glyph-name="Wdieresis" unicode="&#x1e84;" horiz-adv-x="1118" 
d="M485 920q22 0 37 -15t15 -36q0 -22 -15 -37t-37 -15t-37 15t-15 37q0 21 15 36t37 15zM635 920q22 0 36.5 -15t14.5 -36q0 -22 -14.5 -37t-36.5 -15t-37.5 15t-15.5 37q0 21 15.5 36t37.5 15zM837 0h-77l-201 580l-200 -580h-77l-262 748h99l203 -587l200 587h75
l201 -587l202 587h98z" />
    <glyph glyph-name="wdieresis" unicode="&#x1e85;" horiz-adv-x="820" 
d="M332 732q22 0 37 -15t15 -36q0 -22 -15 -36.5t-37 -14.5t-37 14.5t-15 36.5q0 21 15 36t37 15zM482 732q22 0 36.5 -15t14.5 -36q0 -22 -14.5 -36.5t-36.5 -14.5t-37.5 14.5t-15.5 36.5q0 21 15.5 36t37.5 15zM616 0h-69l-137 365l-137 -365h-69l-194 510h94l137 -370
l138 370h61l139 -370l138 370h93z" />
    <glyph glyph-name="Ygrave" unicode="&#x1ef2;" horiz-adv-x="692" 
d="M384 795h-82l-187 141h121zM392 311v-311h-91v311l-284 437h106l224 -347l222 347h106z" />
    <glyph glyph-name="ygrave" unicode="&#x1ef3;" horiz-adv-x="530" 
d="M298 595h-68l-133 191h99zM193 -255h-95l121 283l-203 482h96l154 -385l153 385h96z" />
    <glyph glyph-name="endash" unicode="&#x2013;" horiz-adv-x="563" 
d="M518 221h-473v81h473v-81z" />
    <glyph glyph-name="emdash" unicode="&#x2014;" horiz-adv-x="795" 
d="M750 221h-705v81h705v-81z" />
    <glyph glyph-name="quoteleft" unicode="&#x2018;" horiz-adv-x="182" 
d="M153 750v-39q-51 -38 -59 -102q24 0 41 -16.5t17 -40.5t-16 -41.5t-40 -17.5q-26 0 -41 18.5t-15 48.5q0 126 113 190z" />
    <glyph glyph-name="quoteright" unicode="&#x2019;" horiz-adv-x="182" 
d="M87 750q26 0 40.5 -18.5t14.5 -48.5q0 -125 -112 -190v38q50 40 58 103q-24 1 -40.5 17t-16.5 40t16 41.5t40 17.5z" />
    <glyph glyph-name="quotesinglbase" unicode="&#x201a;" horiz-adv-x="182" 
d="M87 108q26 0 40.5 -18.5t14.5 -48.5q0 -125 -112 -190v39q50 38 58 102q-24 1 -40.5 17t-16.5 40t16 41.5t40 17.5z" />
    <glyph glyph-name="quotedblleft" unicode="&#x201c;" horiz-adv-x="349" 
d="M35 560q0 126 113 190v-39q-51 -38 -59 -102q24 0 41 -16.5t17 -40.5t-16.5 -41.5t-40.5 -17.5q-26 0 -40.5 18.5t-14.5 48.5zM315 750v-39q-51 -38 -59 -102q24 0 41 -16.5t17 -40.5t-16.5 -41.5t-40.5 -17.5q-26 0 -40.5 18.5t-14.5 48.5q0 126 113 190z" />
    <glyph glyph-name="quotedblright" unicode="&#x201d;" horiz-adv-x="349" 
d="M82 750q26 0 40.5 -18.5t14.5 -48.5q0 -126 -113 -190v39q51 38 59 102q-24 0 -41 16.5t-17 40.5t16.5 41.5t40.5 17.5zM249 750q26 0 40.5 -18.5t14.5 -48.5q0 -126 -113 -190v39q51 38 59 102q-24 0 -41 16.5t-17 40.5t16.5 41.5t40.5 17.5z" />
    <glyph glyph-name="quotedblbase" unicode="&#x201e;" horiz-adv-x="349" 
d="M87 108q26 0 40.5 -18.5t14.5 -48.5q0 -125 -112 -190v39q50 38 58 102q-24 1 -40.5 17t-16.5 40t16 41.5t40 17.5zM254 108q26 0 40.5 -18.5t14.5 -48.5q0 -126 -113 -190v39q51 38 59 102q-24 0 -41 16.5t-17 40.5t16.5 41.5t40.5 17.5z" />
    <glyph glyph-name="dagger" unicode="&#x2020;" horiz-adv-x="493" 
d="M290 542h183v-78h-183v-531h-86v531h-184v78h184v206h86v-206z" />
    <glyph glyph-name="daggerdbl" unicode="&#x2021;" horiz-adv-x="493" 
d="M290 542h183v-78h-183v-246h183v-79h-183v-206h-86v206h-184v79h184v246h-184v78h184v206h86v-206z" />
    <glyph glyph-name="bullet" unicode="&#x2022;" horiz-adv-x="349" 
d="M175 375q50 0 84.5 -35t34.5 -85q0 -51 -34.5 -86t-84.5 -35q-51 0 -86 35t-35 86q0 50 35 85t86 35z" />
    <glyph glyph-name="ellipsis" unicode="&#x2026;" horiz-adv-x="624" 
d="M103 109q25 0 42.5 -17.5t17.5 -42.5q0 -24 -17.5 -41.5t-42.5 -17.5q-24 0 -41 17.5t-17 41.5q0 25 17 42.5t41 17.5zM307 109q25 0 42.5 -17.5t17.5 -42.5q0 -24 -17.5 -41.5t-42.5 -17.5q-24 0 -41.5 17.5t-17.5 41.5q0 25 17.5 42.5t41.5 17.5zM511 109
q25 0 42.5 -17.5t17.5 -42.5q0 -24 -17.5 -41.5t-42.5 -17.5q-24 0 -41 17.5t-17 41.5q0 25 17 42.5t41 17.5z" />
    <glyph glyph-name="perthousand" unicode="&#x2030;" horiz-adv-x="1226" 
d="M202 758q72 0 117.5 -48.5t45.5 -129.5t-45.5 -130t-117.5 -49t-118 49t-46 130t46 129.5t118 48.5zM198 0h-85l528 748h85zM201 696q-43 0 -71 -31.5t-28 -84.5q0 -54 28 -86t71 -32q44 0 71.5 32t27.5 86t-27.5 85t-71.5 31zM637 347q72 0 118 -48.5t46 -129.5
t-46 -130t-118 -49q-71 0 -117 49t-46 130t46 129.5t117 48.5zM1025 347q72 0 117.5 -48.5t45.5 -129.5t-46 -130t-117 -49q-72 0 -118 49t-46 130t46 129.5t118 48.5zM637 286q-44 0 -71.5 -31.5t-27.5 -85.5t28 -85.5t71 -31.5q44 0 71.5 31t27.5 86t-27.5 86t-71.5 31z
M1024 286q-44 0 -71.5 -31.5t-27.5 -85.5t28 -85.5t71 -31.5q44 0 72 31.5t28 85.5t-28 85.5t-72 31.5z" />
    <glyph glyph-name="guilsinglleft" unicode="&#x2039;" horiz-adv-x="306" 
d="M287 417l-167 -163l167 -163l-63 -55l-209 218l209 218z" />
    <glyph glyph-name="guilsinglright" unicode="&#x203a;" horiz-adv-x="306" 
d="M292 254l-210 -218l-62 55l167 163l-167 163l62 55z" />
    <glyph glyph-name="fraction" unicode="&#x2044;" horiz-adv-x="197" 
d="M-120 0h-89l527 748h89z" />
    <glyph glyph-name="Euro" unicode="&#x20ac;" horiz-adv-x="706" 
d="M620 134l39 -76q-89 -68 -218 -68q-118 0 -206 71.5t-117 198.5h-110l20 54h81q-3 28 -3 60q0 30 3 58h-101l20 54h90q28 128 116.5 200t207.5 72t206 -65l-29 -75q-71 58 -173 58q-87 0 -148 -49.5t-85 -140.5h351l-21 -54h-341q-3 -27 -3 -58q0 -35 4 -60h291l-20 -54
h-261q24 -90 86 -139t147 -49q102 0 174 62z" />
    <glyph glyph-name="trademark" unicode="&#x2122;" horiz-adv-x="881" 
d="M358 686h-132v-297h-64v297h-130v62h326v-62zM815 389h-65v219l-122 -217h-30l-122 217v-219h-64v359h53l148 -262l148 262h54v-359z" />
    <glyph glyph-name="estimated" unicode="&#x212e;" horiz-adv-x="614" 
d="M321 538q107 0 178 -68.5t71 -187.5h-412v-174q0 -39 26 -53q53 -44 137 -44q72 0 130.5 34.5t96.5 92.5l17 -11q-91 -138 -244 -138q-117 0 -196.5 76t-79.5 196q0 122 79.5 199.5t196.5 77.5zM320 516q-81 0 -136 -44q-26 -12 -26 -50v-119h307v122q0 25 -5.5 37
t-23.5 21q-47 33 -116 33z" />
    <glyph glyph-name="partialdiff" unicode="&#x2202;" horiz-adv-x="613" 
d="M289 758q272 0 272 -476q0 -138 -70.5 -215.5t-191.5 -77.5q-107 0 -179.5 69.5t-72.5 181.5q0 109 70.5 175.5t179.5 66.5q105 0 171 -72q-14 266 -177 266q-94 0 -166 -72l-49 75q95 79 213 79zM305 71q72 0 118.5 46t46.5 122v4q-1 74 -48 121t-117 47
q-71 0 -118 -47.5t-47 -122.5q0 -77 46 -123.5t119 -46.5z" />
    <glyph glyph-name="product" unicode="&#x220f;" horiz-adv-x="643" 
d="M618 667h-103v-831h-78v831h-231v-831h-78v831h-103v81h593v-81z" />
    <glyph glyph-name="summation" unicode="&#x2211;" horiz-adv-x="600" 
d="M553 667h-398l220 -293l-220 -293h398v-81h-504v67l231 307l-231 307v67h504v-81z" />
    <glyph glyph-name="minus" unicode="&#x2212;" horiz-adv-x="546" 
d="M513 330h-480v81h480v-81z" />
    <glyph glyph-name="radical" unicode="&#x221a;" horiz-adv-x="633" 
d="M603 664l-274 -741l-144 341l-112 -73l-44 68l189 120l110 -275l204 590z" />
    <glyph glyph-name="infinity" unicode="&#x221e;" horiz-adv-x="787" 
d="M577 495q78 0 128.5 -55t50.5 -134q0 -81 -50.5 -136t-128.5 -55q-99 0 -181 104l-22 27l-21 -27q-81 -88 -161 -88q-72 0 -116.5 50t-44.5 124q0 73 44.5 123.5t116.5 50.5q87 0 160 -90l21 -27l18 22q45 55 86.5 83t99.5 28zM577 422q-41 0 -72 -23.5t-68 -69.5
l-19 -25l21 -28q72 -87 138 -87q47 0 76.5 34t29.5 83t-29.5 82.5t-76.5 33.5zM194 408q-42 0 -68 -30t-26 -73q0 -44 26 -74t68 -30q62 0 118 74l23 29l-22 27q-61 77 -119 77z" />
    <glyph glyph-name="integral" unicode="&#x222b;" horiz-adv-x="339" 
d="M256 758q42 0 86 -14l-15 -66q-26 9 -53 9q-36 0 -50 -20t-14 -68v-610q0 -83 -29.5 -121.5t-94.5 -38.5q-44 0 -87 13l15 66q31 -9 51 -9q38 0 54 21t16 71v611q0 80 28.5 118t92.5 38z" />
    <glyph glyph-name="approxequal" unicode="&#x2248;" horiz-adv-x="536" 
d="M475 557l40 -57q-34 -42 -68.5 -63t-82.5 -21q-47 0 -101.5 31t-87.5 31q-37 0 -62 -13t-52 -45l-40 58q33 41 66.5 61t79.5 20q38 0 92.5 -31t96.5 -31q39 0 66 14t53 46zM475 323l40 -58q-33 -42 -68 -62.5t-83 -20.5q-47 0 -101.5 31t-87.5 31q-37 0 -62 -13t-52 -45
l-40 57q33 42 66.5 62t79.5 20q38 0 92.5 -31.5t96.5 -31.5q39 0 65.5 14.5t53.5 46.5z" />
    <glyph glyph-name="notequal" unicode="&#x2260;" horiz-adv-x="546" 
d="M335 447l-54 -158h232v-81h-260l-45 -131l-74 18l39 113h-140v81h167l54 158h-221v82h250l44 130l75 -19l-38 -111h149v-82h-178z" />
    <glyph glyph-name="lessequal" unicode="&#x2264;" horiz-adv-x="518" 
d="M486 576l-284 -125l284 -125l-2 -88l-457 213l457 213zM486 99h-459v81h459v-81z" />
    <glyph glyph-name="greaterequal" unicode="&#x2265;" horiz-adv-x="518" 
d="M491 451l-457 -213l-1 88l284 125l-284 125l1 88zM491 99h-458v81h458v-81z" />
    <glyph glyph-name="lozenge" unicode="&#x25ca;" horiz-adv-x="536" 
d="M501 346l-205 -401h-55l-206 401l206 402h55zM126 346l143 -276l142 276l-142 277z" />
    <glyph glyph-name="fl" unicode="&#xfb02;" horiz-adv-x="604" 
d="M292 781q16 0 38 -2v-75q-16 2 -29 2q-47 0 -75.5 -29t-28.5 -80v-87h131v-75h-131v-435h-86v435h-99v75h99v85q0 87 49 136.5t132 49.5zM516 0h-86v777h86v-777z" />
    <glyph glyph-name="n.001" horiz-adv-x="609" 
d="M330 519q87 0 141.5 -55t54.5 -146v-318h-87v299q0 63 -35.5 101.5t-93.5 38.5q-60 0 -98.5 -41t-38.5 -100v-298h-86v510h82v-89q15 40 58 69t103 29z" />
    <glyph glyph-name="germandbls.cap" horiz-adv-x="689" 
d="M329 756q160 0 259 -120l-116 -180q174 -49 174 -225q0 -110 -74 -174.5t-195 -64.5q-50 0 -88 8l18 81q24 -8 66 -8q79 0 129 42.5t50 114.5q0 80 -53 122t-156 60l127 204q-52 59 -145 59q-65 0 -108 -38.5t-43 -100.5v-536h-91v535q0 99 70 160t176 61z" />
    <glyph glyph-name="a.sups" horiz-adv-x="441" 
d="M218 756q159 0 159 -160v-256h-73v52q-17 -26 -51.5 -43t-77.5 -17q-62 0 -98 29.5t-36 85.5q0 113 164 124l94 6v24q0 42 -21 65t-60 23q-42 0 -65.5 -24t-23.5 -57l-76 3q0 58 45 101.5t120 43.5zM300 522l-89 -6q-91 -7 -91 -65t70 -58q45 -1 77.5 27t32.5 84v18z" />
    <glyph glyph-name="b.sups" horiz-adv-x="521" 
d="M145 962v-269q17 28 53 45.5t83 17.5q86 0 142 -58t56 -154t-56 -154t-142 -58q-49 0 -86 18.5t-54 48.5v-59h-73v622h77zM269 689q-55 0 -89.5 -35t-34.5 -98v-24q0 -63 34.5 -98t89.5 -35q58 0 95 38t37 106q0 69 -37 107.5t-95 38.5z" />
    <glyph glyph-name="c.sups" horiz-adv-x="464" 
d="M244 756q74 0 125 -41.5t61 -112.5l-75 -7q-6 44 -36 69t-75 25q-55 0 -89.5 -38.5t-34.5 -107.5q0 -67 35 -105.5t89 -38.5q46 0 75 23.5t36 64.5l75 -7q-11 -69 -61 -108.5t-125 -39.5q-89 0 -146 57t-57 154q0 99 56.5 156t146.5 57z" />
    <glyph glyph-name="d.sups" horiz-adv-x="521" 
d="M452 340h-72v59q-17 -30 -54.5 -48.5t-86.5 -18.5q-86 0 -142 58t-56 154t56 154t142 58q48 0 84 -17.5t52 -45.5v269h77v-622zM251 689q-57 0 -94 -39t-37 -107t37 -106t94 -38q55 0 89.5 35t34.5 98v24q0 63 -34.5 98t-89.5 35z" />
    <glyph glyph-name="e.sups" horiz-adv-x="474" 
d="M433 517h-309q2 -57 34.5 -87.5t85.5 -30.5q42 0 70.5 18.5t36.5 51.5l78 -5q-12 -59 -62.5 -95.5t-121.5 -36.5q-90 0 -147 56.5t-57 154.5q0 99 56.5 156t146.5 57q88 0 138.5 -54.5t50.5 -147.5v-37zM243 689q-49 0 -81.5 -30t-36.5 -82h230q-2 50 -31.5 81t-80.5 31z
" />
    <glyph glyph-name="f.sups" horiz-adv-x="276" 
d="M237 965q20 0 32 -3v-67q-5 2 -22 2q-37 0 -59 -22t-22 -61v-66h102v-67h-102v-341h-78v341h-79v67h79v65q0 71 40.5 111.5t108.5 40.5z" />
    <glyph glyph-name="g.sups" horiz-adv-x="519" 
d="M239 756q49 0 86.5 -18.5t54.5 -47.5v58h72v-430q0 -88 -53.5 -138.5t-143.5 -50.5q-86 0 -137.5 39.5t-63.5 106.5l78 3q6 -39 39 -61.5t81 -22.5q56 0 89.5 31t33.5 88v82q-17 -29 -53 -46t-83 -17q-86 0 -142 58t-56 154t56 154t142 58zM251 689q-58 0 -94.5 -38.5
t-36.5 -106.5t36.5 -106.5t94.5 -38.5q55 0 89.5 35t34.5 98v24q0 64 -34.5 98.5t-89.5 34.5z" />
    <glyph glyph-name="h.sups" horiz-adv-x="484" 
d="M145 962v-265q15 24 46 41.5t75 17.5q71 0 114.5 -44t43.5 -118v-254h-78v237q0 49 -26.5 78t-71.5 29q-46 0 -74.5 -31t-28.5 -77v-236h-77v622h77z" />
    <glyph glyph-name="i.sups" horiz-adv-x="214" 
d="M107 944q20 0 34.5 -15t14.5 -35q0 -21 -14.5 -35t-34.5 -14q-21 0 -35.5 14t-14.5 35q0 20 15 35t35 15zM146 340h-78v408h78v-408z" />
    <glyph glyph-name="j.sups" horiz-adv-x="214" 
d="M106 944q21 0 35.5 -15t14.5 -35q0 -21 -14.5 -35t-35.5 -14q-20 0 -34.5 14t-14.5 35q0 20 14.5 35t34.5 15zM146 748v-465q0 -71 -38.5 -111.5t-105.5 -40.5q-14 0 -34 2v68q14 -2 24 -2q36 0 56.5 21.5t20.5 60.5v467h77z" />
    <glyph glyph-name="k.sups" horiz-adv-x="435" 
d="M145 575l170 173h97l-171 -178l189 -230h-98l-145 174l-42 -42v-132h-77v622h77v-387z" />
    <glyph glyph-name="l.sups" horiz-adv-x="213" 
d="M145 340h-77v622h77v-622z" />
    <glyph glyph-name="m.sups" horiz-adv-x="748" 
d="M529 756q70 0 112 -43.5t42 -118.5v-254h-78v237q0 50 -24.5 78.5t-67.5 28.5q-45 0 -72 -31t-27 -77v-236h-78v237q0 50 -24.5 78.5t-68.5 28.5q-45 0 -71.5 -31t-26.5 -77v-236h-77v408h73v-51q14 23 44.5 41t74.5 18q96 0 135 -75q39 75 134 75z" />
    <glyph glyph-name="n.sups" horiz-adv-x="488" 
d="M266 756q71 0 114.5 -44t43.5 -118v-254h-78v237q0 49 -26.5 78t-71.5 29q-46 0 -74.5 -31t-28.5 -77v-236h-77v408h73v-51q15 24 47.5 41.5t77.5 17.5z" />
    <glyph glyph-name="o.sups" horiz-adv-x="506" 
d="M252 756q92 0 152 -58.5t60 -154.5t-60 -153.5t-152 -57.5t-151.5 57.5t-59.5 153.5t59.5 154.5t151.5 58.5zM253 689q-58 0 -95.5 -39.5t-37.5 -106.5t37.5 -105.5t95.5 -38.5q59 0 96.5 38.5t37.5 105.5t-37.5 106.5t-96.5 39.5z" />
    <glyph glyph-name="p.sups" horiz-adv-x="521" 
d="M281 756q86 0 142 -58t56 -154t-56 -154t-142 -58q-47 0 -83 17.5t-53 45.5v-259h-77v612h73v-58q17 30 54 48t86 18zM269 689q-55 0 -89.5 -34.5t-34.5 -98.5v-24q0 -63 34.5 -98t89.5 -35q58 0 95 38.5t37 106.5t-37 106.5t-95 38.5z" />
    <glyph glyph-name="q.sups" horiz-adv-x="521" 
d="M239 756q49 0 86.5 -18.5t54.5 -47.5v58h72v-612h-77v259q-16 -28 -52 -45.5t-84 -17.5q-86 0 -142 58t-56 154t56 154t142 58zM251 689q-58 0 -94.5 -38.5t-36.5 -106.5t36.5 -106.5t94.5 -38.5q55 0 89.5 35t34.5 98v24q0 64 -34.5 98.5t-89.5 34.5z" />
    <glyph glyph-name="r.sups" horiz-adv-x="274" 
d="M261 753v-74q-52 0 -84 -31t-32 -78v-230h-77v408h74v-50q37 55 119 55z" />
    <glyph glyph-name="s.sups" horiz-adv-x="400" 
d="M195 756q68 0 107.5 -34.5t45.5 -92.5l-77 -5q-6 65 -76 65q-36 0 -55 -14.5t-19 -40.5q0 -9 2 -15.5t7 -11.5t10 -8t15 -6l17 -5t21 -5l23 -5q73 -17 107 -41.5t34 -76.5q0 -61 -42 -94.5t-116 -33.5q-70 0 -113 34t-51 94l78 5q8 -67 86 -67q81 0 81 59q0 26 -20 37
t-78 24q-74 17 -106 39t-32 77q0 56 39.5 89t111.5 33z" />
    <glyph glyph-name="t.sups" horiz-adv-x="284" 
d="M228 403q21 0 41 4v-69q-30 -4 -58 -4q-61 0 -95.5 32t-34.5 99l1 216h-76v67h76l1 141h78l-1 -141h108v-67h-109l-1 -205q0 -73 70 -73z" />
    <glyph glyph-name="u.sups" horiz-adv-x="475" 
d="M407 340h-74v51q-36 -59 -119 -59q-70 0 -110 42.5t-40 115.5v258h78v-240q0 -49 23.5 -76t67.5 -27t70.5 29t26.5 73v241h77v-408z" />
    <glyph glyph-name="v.sups" horiz-adv-x="430" 
d="M246 340h-61l-177 408h85l123 -288l122 288h84z" />
    <glyph glyph-name="w.sups" horiz-adv-x="661" 
d="M498 340h-60l-107 288l-108 -288h-59l-156 408h85l106 -283l105 283h54l105 -283l106 283h84z" />
    <glyph glyph-name="x.sups" horiz-adv-x="417" 
d="M264 549l142 -209h-92l-105 152l-103 -152h-94l142 208l-136 200h93l98 -144l98 144h92z" />
    <glyph glyph-name="y.sups" horiz-adv-x="431" 
d="M159 136h-84l98 232l-161 380h85l119 -288l118 288h84z" />
    <glyph glyph-name="z.sups" horiz-adv-x="362" 
d="M326 694l-210 -292h219v-62h-309v53l210 292h-206v63h296v-54z" />
    <glyph glyph-name="zero.onum" horiz-adv-x="646" 
d="M323 601q123 0 196 -82.5t73 -222.5q0 -141 -73 -223.5t-196 -82.5t-196.5 82.5t-73.5 223.5t73.5 223t196.5 82zM323 520q-83 0 -129.5 -59.5t-46.5 -164.5t46.5 -164.5t129.5 -59.5q82 0 128.5 59.5t46.5 164.5t-46.5 164.5t-128.5 59.5z" />
    <glyph glyph-name="one.onum" horiz-adv-x="372" 
d="M280 0h-90v474l-137 -108l-40 71l200 153h67v-590z" />
    <glyph glyph-name="two.onum" horiz-adv-x="536" 
d="M275 599q105 0 160 -52t55 -145q0 -68 -38 -119t-107 -104l-129 -98h283v-81h-441v70l217 162q35 26 49 37.5t35.5 34t30 45.5t8.5 51q0 118 -121 118q-62 0 -96.5 -38t-35.5 -107l-91 5q2 104 60 162.5t161 58.5z" />
    <glyph glyph-name="three.onum" horiz-adv-x="557" 
d="M276 600q100 0 157.5 -55.5t57.5 -149.5q0 -63 -30 -105.5t-77 -60.5q56 -13 91 -59t35 -117q0 -101 -63.5 -161t-168.5 -60q-108 0 -168.5 58.5t-67.5 161.5l92 5q6 -69 42.5 -106t101.5 -37t102.5 37.5t37.5 103.5q0 65 -40.5 99t-107.5 34h-73v81h71q58 0 94.5 34
t36.5 92q0 59 -33 91t-90 32q-59 0 -93 -35t-39 -100l-90 5q4 99 62 155.5t160 56.5z" />
    <glyph glyph-name="four.onum" horiz-adv-x="596" 
d="M442 101h129v-82h-129v-177h-89v177h-326v75l339 496h76v-489zM128 101h225v325z" />
    <glyph glyph-name="five.onum" horiz-adv-x="559" 
d="M289 301q99 0 161 -61.5t62 -168.5t-63 -173t-172 -66q-105 0 -165.5 57t-67.5 157l92 5q6 -65 41.5 -101t100.5 -36q68 0 105.5 43t37.5 112q0 68 -38.5 109.5t-102.5 41.5q-69 0 -125 -45h-84v415h413v-81h-323v-244q57 36 128 36z" />
    <glyph glyph-name="six.onum" horiz-adv-x="592" 
d="M298 478q108 0 179 -68t71 -177t-71 -176t-179 -67q-110 0 -180.5 67t-70.5 176q0 86 51 155l269 360h108l-202 -271q8 1 25 1zM298 72q69 0 113.5 45t44.5 119t-44.5 118t-113.5 44q-82 0 -126 -56q-33 -42 -33 -106q0 -75 44.5 -119.5t114.5 -44.5z" />
    <glyph glyph-name="seven.onum" horiz-adv-x="539" 
d="M515 516l-351 -674h-101l351 667h-391v81h492v-74z" />
    <glyph glyph-name="eight.onum" horiz-adv-x="599" 
d="M299 758q98 0 161.5 -54.5t63.5 -146.5q0 -57 -28 -99t-73 -63q54 -23 87 -71t33 -115q0 -100 -68.5 -159.5t-175.5 -59.5q-106 0 -174.5 59.5t-68.5 159.5q0 66 32.5 114t86.5 71q-46 20 -73.5 62.5t-27.5 100.5q0 93 63 147t162 54zM300 676q-59 0 -97 -33t-38 -91
q0 -56 38 -88.5t97 -32.5q58 0 96 32.5t38 88.5q0 58 -38 91t-96 33zM299 351q-66 0 -109 -37.5t-43 -101.5t43 -102t109 -38t109 38t43 102t-43 101.5t-109 37.5z" />
    <glyph glyph-name="nine.onum" horiz-adv-x="592" 
d="M294 600q110 0 180.5 -67t70.5 -176q0 -86 -51 -155l-269 -360h-108l202 271q-8 -1 -25 -1q-108 0 -179 68t-71 177t71 176t179 67zM294 192q82 0 126 56q33 42 33 106q0 75 -44.5 119.5t-114.5 44.5q-69 0 -113.5 -45t-44.5 -119t44.5 -118t113.5 -44z" />
    <glyph glyph-name="zero.slash" horiz-adv-x="645" 
d="M323 758q123 0 195.5 -100.5t72.5 -283.5t-72.5 -283.5t-195.5 -100.5q-125 0 -197.5 100.5t-72.5 283.5t72.5 283.5t197.5 100.5zM322 676q-86 0 -131 -77t-45 -225q0 -133 36 -208l244 469q-43 41 -104 41zM322 72q86 0 131.5 77t45.5 225q0 129 -35 205l-243 -469
q41 -38 101 -38z" />
    <glyph glyph-name="zero.subs" horiz-adv-x="370" 
d="M185 337q70 0 111 -55.5t41 -155.5q0 -101 -41 -156.5t-111 -55.5q-69 0 -110.5 55.5t-41.5 156.5q0 100 41.5 155.5t110.5 55.5zM185 277q-84 0 -84 -151t84 -151t84 151t-84 151z" />
    <glyph glyph-name="one.subs" horiz-adv-x="223" 
d="M175 -80h-68v321l-69 -53l-30 53l124 90h43v-411z" />
    <glyph glyph-name="two.subs" horiz-adv-x="314" 
d="M157 337q62 0 94 -34.5t32 -90.5q0 -43 -18.5 -77.5t-55.5 -74.5l-77 -80h155v-60h-256v46l129 135q55 58 55 112q0 29 -15 46.5t-42 17.5q-29 0 -46 -18.5t-17 -51.5l-66 4q1 59 35 92.5t93 33.5z" />
    <glyph glyph-name="three.subs" horiz-adv-x="323" 
d="M159 337q58 0 91 -31t33 -84q0 -63 -55 -89q27 -8 45 -33t18 -62q0 -57 -36 -90.5t-95 -33.5q-62 0 -96.5 33t-36.5 90l67 5q6 -67 66 -67q30 0 47 17.5t17 47.5t-19 46t-50 16h-41v58h40q27 0 45 16t18 43t-16 42.5t-42 15.5q-27 0 -43 -16.5t-17 -46.5l-66 4
q2 56 34.5 87.5t91.5 31.5z" />
    <glyph glyph-name="four.subs" horiz-adv-x="346" 
d="M264 71h62v-61h-62v-90h-68v90h-178v53l182 268h64v-260zM78 71h119v167z" />
    <glyph glyph-name="five.subs" horiz-adv-x="321" 
d="M168 177q56 0 90.5 -34t34.5 -95t-36 -97.5t-98 -36.5q-59 0 -93.5 32t-37.5 87l67 4q7 -62 65 -62q31 0 48.5 20t17.5 52t-18 51t-48 19t-58 -22h-59v236h234v-60h-167v-108q25 14 58 14z" />
    <glyph glyph-name="six.subs" horiz-adv-x="343" 
d="M282 331l-106 -145q59 -1 98.5 -38.5t39.5 -97.5q0 -61 -40 -98.5t-101 -37.5q-62 0 -102.5 37.5t-40.5 98.5q0 44 29 87l142 194h81zM172 -25q33 0 53.5 21t20.5 56q0 36 -20 55.5t-54 19.5q-39 0 -58 -25q-16 -23 -16 -50q0 -35 21 -56t53 -21z" />
    <glyph glyph-name="seven.subs" horiz-adv-x="314" 
d="M293 280l-179 -360h-75l177 351h-197v60h274v-51z" />
    <glyph glyph-name="eight.subs" horiz-adv-x="346" 
d="M173 337q55 0 91.5 -31t36.5 -83q0 -54 -44 -85q55 -34 55 -100q0 -57 -39 -90.5t-100 -33.5t-100 33.5t-39 90.5q0 65 54 99q-44 33 -44 86q0 52 36 83t93 31zM173 277q-28 0 -47 -16t-19 -44q0 -27 19 -42.5t47 -15.5t46 15.5t18 42.5q0 28 -17.5 44t-46.5 16zM173 103
q-31 0 -51.5 -17t-20.5 -47t20.5 -47t51.5 -17q32 0 51.5 17t19.5 47t-20 47t-51 17z" />
    <glyph glyph-name="nine.subs" horiz-adv-x="343" 
d="M171 337q62 0 102.5 -37.5t40.5 -98.5q0 -48 -30 -87l-140 -194h-82l106 145q-59 1 -98.5 38.5t-39.5 97.5q0 61 40 98.5t101 37.5zM172 124q39 0 58 25q16 21 16 50q0 35 -20.5 56.5t-53.5 21.5q-32 0 -53 -21.5t-21 -56.5t20.5 -55t53.5 -20z" />
    <glyph glyph-name="zero.sups" horiz-adv-x="370" 
d="M185 819q70 0 111 -55.5t41 -155.5q0 -101 -41 -156.5t-111 -55.5q-69 0 -110.5 55.5t-41.5 156.5q0 100 41.5 155.5t110.5 55.5zM185 759q-84 0 -84 -151t84 -151t84 151t-84 151z" />
    <glyph glyph-name="one.sups" horiz-adv-x="223" 
d="M175 402h-68v321l-69 -53l-30 53l124 90h43v-411z" />
    <glyph glyph-name="two.sups" horiz-adv-x="314" 
d="M157 819q62 0 94 -34.5t32 -90.5q0 -43 -18.5 -77.5t-55.5 -74.5l-77 -80h155v-60h-256v46l129 135q55 58 55 112q0 29 -15 46.5t-42 17.5q-29 0 -46 -18.5t-17 -51.5l-66 4q1 59 35 92.5t93 33.5z" />
    <glyph glyph-name="three.sups" horiz-adv-x="323" 
d="M159 819q58 0 91 -31t33 -84q0 -63 -55 -89q27 -8 45 -33t18 -62q0 -57 -36 -90.5t-95 -33.5q-62 0 -96.5 33t-36.5 90l67 5q6 -67 66 -67q30 0 47 17.5t17 47.5t-19 46t-50 16h-41v58h40q27 0 45 16t18 43t-16 42.5t-42 15.5q-27 0 -43 -16.5t-17 -46.5l-66 4
q2 56 34.5 87.5t91.5 31.5z" />
    <glyph glyph-name="four.sups" horiz-adv-x="346" 
d="M264 553h62v-61h-62v-90h-68v90h-178v53l182 268h64v-260zM78 553h119v167z" />
    <glyph glyph-name="five.sups" horiz-adv-x="321" 
d="M168 659q56 0 90.5 -34t34.5 -95t-36 -97.5t-98 -36.5q-59 0 -93.5 32t-37.5 87l67 4q7 -62 65 -62q31 0 48.5 20t17.5 52t-18 51t-48 19t-58 -22h-59v236h234v-60h-167v-108q25 14 58 14z" />
    <glyph glyph-name="six.sups" horiz-adv-x="343" 
d="M282 813l-106 -145q59 -1 98.5 -38.5t39.5 -97.5q0 -61 -40 -98.5t-101 -37.5q-62 0 -102.5 37.5t-40.5 98.5q0 44 29 87l142 194h81zM172 457q33 0 53.5 21t20.5 56q0 36 -20 55.5t-54 19.5q-39 0 -58 -25q-16 -23 -16 -50q0 -35 21 -56t53 -21z" />
    <glyph glyph-name="seven.sups" horiz-adv-x="314" 
d="M293 762l-179 -360h-75l177 351h-197v60h274v-51z" />
    <glyph glyph-name="eight.sups" horiz-adv-x="346" 
d="M173 819q55 0 91.5 -31t36.5 -83q0 -54 -44 -85q55 -34 55 -100q0 -57 -39 -90.5t-100 -33.5t-100 33.5t-39 90.5q0 65 54 99q-44 33 -44 86q0 52 36 83t93 31zM173 759q-28 0 -47 -16t-19 -44q0 -27 19 -42.5t47 -15.5t46 15.5t18 42.5q0 28 -17.5 44t-46.5 16zM173 585
q-31 0 -51.5 -17t-20.5 -47t20.5 -47t51.5 -17q32 0 51.5 17t19.5 47t-20 47t-51 17z" />
    <glyph glyph-name="nine.sups" horiz-adv-x="343" 
d="M171 819q62 0 102.5 -37.5t40.5 -98.5q0 -48 -30 -87l-140 -194h-82l106 145q-59 1 -98.5 38.5t-39.5 97.5q0 61 40 98.5t101 37.5zM172 606q39 0 58 25q16 21 16 50q0 35 -20.5 56.5t-53.5 21.5q-32 0 -53 -21.5t-21 -56.5t20.5 -55t53.5 -20z" />
    <glyph glyph-name="zero.tnum" horiz-adv-x="650" 
d="M325 758q124 0 196.5 -101t72.5 -283t-72.5 -283t-196.5 -101t-197 100.5t-73 283.5t73 283.5t197 100.5zM325 676q-86 0 -131.5 -77t-45.5 -225t45.5 -225t131.5 -77t131 77t45 225t-45 225t-131 77z" />
    <glyph glyph-name="one.tnum" horiz-adv-x="650" 
d="M405 81h156v-81h-416v81h169v545l-144 -109l-43 69l211 162h67v-667z" />
    <glyph glyph-name="two.tnum" horiz-adv-x="650" 
d="M328 757q102 0 158 -55.5t56 -153.5q0 -86 -37 -153.5t-110 -143.5l-162 -170h318v-81h-443v74l220 231q69 73 96 122t27 117q0 60 -31.5 96t-89.5 36q-65 0 -98 -39t-35 -111l-91 5q2 107 59.5 166.5t162.5 59.5z" />
    <glyph glyph-name="three.tnum" horiz-adv-x="650" 
d="M323 758q101 0 158.5 -55.5t57.5 -149.5q0 -63 -30 -105.5t-77 -60.5q56 -13 90.5 -59t34.5 -117q0 -101 -63.5 -161t-167.5 -60q-108 0 -168.5 58.5t-67.5 161.5l91 5q7 -69 43.5 -106t100.5 -37q66 0 103 37.5t37 103.5q0 65 -40 99t-107 34h-74v81h72q58 0 94.5 34
t36.5 92q0 59 -33 91t-91 32q-59 0 -93 -35.5t-38 -99.5l-91 5q5 99 62.5 155.5t159.5 56.5z" />
    <glyph glyph-name="four.tnum" horiz-adv-x="650" 
d="M465 259h129v-82h-129v-177h-89v177h-327v75l340 496h76v-489zM151 259h224v325z" />
    <glyph glyph-name="five.tnum" horiz-adv-x="650" 
d="M332 459q100 0 162 -61.5t62 -168.5t-63 -173t-173 -66q-105 0 -165 57t-67 157l91 5q6 -65 42 -101t100 -36q69 0 106.5 43t37.5 112q0 68 -39 109.5t-103 41.5q-69 0 -125 -45h-84v415h413v-81h-323v-244q57 36 128 36z" />
    <glyph glyph-name="six.tnum" horiz-adv-x="650" 
d="M322 478q108 0 179 -68t71 -177t-71 -176t-179 -67q-109 0 -180 67t-71 176q0 86 51 155l269 360h109l-202 -271q8 1 24 1zM322 72q69 0 113.5 44.5t44.5 119.5q0 74 -44 118t-114 44q-83 0 -125 -56q-33 -42 -33 -106q0 -75 44 -119.5t114 -44.5z" />
    <glyph glyph-name="seven.tnum" horiz-adv-x="650" 
d="M566 674l-351 -674h-101l351 667h-391v81h492v-74z" />
    <glyph glyph-name="eight.tnum" horiz-adv-x="650" 
d="M324 758q98 0 162 -54.5t64 -146.5q0 -58 -28 -99.5t-74 -62.5q54 -23 87 -71t33 -115q0 -100 -68.5 -159.5t-174.5 -59.5t-174.5 59.5t-68.5 159.5q0 66 32.5 114t85.5 71q-46 20 -73.5 62.5t-27.5 100.5q0 93 63 147t162 54zM325 676q-59 0 -97 -33t-38 -91
q0 -56 38 -88.5t97 -32.5q58 0 96 32.5t38 88.5q0 58 -37.5 91t-96.5 33zM324 351q-66 0 -109 -37.5t-43 -101.5t43 -102t109 -38q67 0 110 37.5t43 102.5q0 64 -43 101.5t-110 37.5z" />
    <glyph glyph-name="nine.tnum" horiz-adv-x="650" 
d="M328 758q109 0 180 -67t71 -176q0 -86 -51 -155l-269 -360h-109l202 271q-8 -1 -24 -1q-108 0 -179 68t-71 177t71 176t179 67zM328 350q83 0 125 56q33 42 33 106q0 75 -44 119.5t-114 44.5q-69 0 -113.5 -44.5t-44.5 -119.5q0 -74 44 -118t114 -44z" />
    <glyph glyph-name="zero.dnom" horiz-adv-x="370" 
d="M185 417q70 0 111 -55.5t41 -155.5q0 -101 -41 -156.5t-111 -55.5q-69 0 -110.5 55.5t-41.5 156.5q0 100 41.5 155.5t110.5 55.5zM185 357q-84 0 -84 -151t84 -151t84 151t-84 151z" />
    <glyph glyph-name="one.dnom" horiz-adv-x="223" 
d="M175 0h-68v321l-69 -53l-30 53l124 90h43v-411z" />
    <glyph glyph-name="two.dnom" horiz-adv-x="314" 
d="M157 417q62 0 94 -34.5t32 -90.5q0 -43 -18.5 -77.5t-55.5 -74.5l-77 -80h155v-60h-256v46l129 135q55 58 55 112q0 29 -15 46.5t-42 17.5q-29 0 -46 -18.5t-17 -51.5l-66 4q1 59 35 92.5t93 33.5z" />
    <glyph glyph-name="three.dnom" horiz-adv-x="323" 
d="M159 417q58 0 91 -31t33 -84q0 -63 -55 -89q27 -8 45 -33t18 -62q0 -57 -36 -90.5t-95 -33.5q-62 0 -96.5 33t-36.5 90l67 5q6 -67 66 -67q30 0 47 17.5t17 47.5t-19 46t-50 16h-41v58h40q27 0 45 16t18 43t-16 42.5t-42 15.5q-27 0 -43 -16.5t-17 -46.5l-66 4
q2 56 34.5 87.5t91.5 31.5z" />
    <glyph glyph-name="four.dnom" horiz-adv-x="346" 
d="M264 151h62v-61h-62v-90h-68v90h-178v53l182 268h64v-260zM78 151h119v167z" />
    <glyph glyph-name="five.dnom" horiz-adv-x="321" 
d="M168 257q56 0 90.5 -34t34.5 -95t-36 -97.5t-98 -36.5q-59 0 -93.5 32t-37.5 87l67 4q7 -62 65 -62q31 0 48.5 20t17.5 52t-18 51t-48 19t-58 -22h-59v236h234v-60h-167v-108q25 14 58 14z" />
    <glyph glyph-name="six.dnom" horiz-adv-x="343" 
d="M282 411l-106 -145q59 -1 98.5 -38.5t39.5 -97.5q0 -61 -40 -98.5t-101 -37.5q-62 0 -102.5 37.5t-40.5 98.5q0 44 29 87l142 194h81zM172 55q33 0 53.5 21t20.5 56q0 36 -20 55.5t-54 19.5q-39 0 -58 -25q-16 -23 -16 -50q0 -35 21 -56t53 -21z" />
    <glyph glyph-name="seven.dnom" horiz-adv-x="314" 
d="M293 360l-179 -360h-75l177 351h-197v60h274v-51z" />
    <glyph glyph-name="eight.dnom" horiz-adv-x="346" 
d="M173 417q55 0 91.5 -31t36.5 -83q0 -54 -44 -85q55 -34 55 -100q0 -57 -39 -90.5t-100 -33.5t-100 33.5t-39 90.5q0 65 54 99q-44 33 -44 86q0 52 36 83t93 31zM173 357q-28 0 -47 -16t-19 -44q0 -27 19 -42.5t47 -15.5t46 15.5t18 42.5q0 28 -17.5 44t-46.5 16zM173 183
q-31 0 -51.5 -17t-20.5 -47t20.5 -47t51.5 -17q32 0 51.5 17t19.5 47t-20 47t-51 17z" />
    <glyph glyph-name="nine.dnom" horiz-adv-x="343" 
d="M171 417q62 0 102.5 -37.5t40.5 -98.5q0 -48 -30 -87l-140 -194h-82l106 145q-59 1 -98.5 38.5t-39.5 97.5q0 61 40 98.5t101 37.5zM172 204q39 0 58 25q16 21 16 50q0 35 -20.5 56.5t-53.5 21.5q-32 0 -53 -21.5t-21 -56.5t20.5 -55t53.5 -20z" />
    <glyph glyph-name="zero.numr" horiz-adv-x="370" 
d="M185 738q70 0 111 -55.5t41 -155.5q0 -101 -41 -156.5t-111 -55.5q-69 0 -110.5 55.5t-41.5 156.5q0 100 41.5 155.5t110.5 55.5zM185 678q-84 0 -84 -151t84 -151t84 151t-84 151z" />
    <glyph glyph-name="one.numr" horiz-adv-x="223" 
d="M175 322h-68v321l-69 -53l-30 53l124 90h43v-411z" />
    <glyph glyph-name="two.numr" horiz-adv-x="314" 
d="M157 738q62 0 94 -34.5t32 -90.5q0 -43 -18.5 -77.5t-55.5 -74.5l-77 -80h155v-60h-256v46l129 135q55 58 55 112q0 29 -15 46.5t-42 17.5q-29 0 -46 -18.5t-17 -51.5l-66 4q1 59 35 92.5t93 33.5z" />
    <glyph glyph-name="three.numr" horiz-adv-x="323" 
d="M159 738q58 0 91 -31t33 -84q0 -63 -55 -89q27 -8 45 -33t18 -62q0 -57 -36 -90.5t-95 -33.5q-62 0 -96.5 33t-36.5 90l67 5q6 -67 66 -67q30 0 47 17t17 48q0 30 -19 46t-50 16h-41v58h40q27 0 45 16t18 43t-16 42.5t-42 15.5q-27 0 -43 -16.5t-17 -46.5l-66 4
q2 56 34.5 87.5t91.5 31.5z" />
    <glyph glyph-name="four.numr" horiz-adv-x="346" 
d="M264 472h62v-61h-62v-90h-68v90h-178v53l182 268h64v-260zM78 472h119v167z" />
    <glyph glyph-name="five.numr" horiz-adv-x="321" 
d="M168 579q56 0 90.5 -34t34.5 -95t-36 -97.5t-98 -36.5q-59 0 -93.5 32t-37.5 87l67 4q7 -62 65 -62q31 0 48.5 20t17.5 52t-18 51t-48 19t-58 -22h-59v236h234v-60h-167v-108q25 14 58 14z" />
    <glyph glyph-name="six.numr" horiz-adv-x="343" 
d="M282 732l-106 -145q59 -1 98.5 -38.5t39.5 -97.5q0 -61 -40 -98.5t-101 -37.5q-62 0 -102.5 37.5t-40.5 98.5q0 44 29 87l142 194h81zM172 376q33 0 53.5 21t20.5 56q0 36 -20 55.5t-54 19.5q-39 0 -58 -25q-16 -23 -16 -50q0 -35 21 -56t53 -21z" />
    <glyph glyph-name="seven.numr" horiz-adv-x="314" 
d="M293 682l-179 -360h-75l177 351h-197v60h274v-51z" />
    <glyph glyph-name="eight.numr" horiz-adv-x="346" 
d="M173 738q55 0 91.5 -31t36.5 -83q0 -54 -44 -85q55 -34 55 -100q0 -57 -39 -90.5t-100 -33.5t-100 33.5t-39 90.5q0 65 54 99q-44 33 -44 86q0 52 36 83t93 31zM173 678q-28 0 -47 -16t-19 -44q0 -27 19 -42.5t47 -15.5t46 15.5t18 42.5q0 28 -17.5 44t-46.5 16zM173 504
q-31 0 -51.5 -17t-20.5 -47t20.5 -47t51.5 -17q32 0 51.5 17t19.5 47t-20 47t-51 17z" />
    <glyph glyph-name="nine.numr" horiz-adv-x="343" 
d="M171 738q62 0 102.5 -37.5t40.5 -98.5q0 -48 -30 -87l-140 -194h-82l106 145q-59 1 -98.5 38.5t-39.5 97.5q0 61 40 98.5t101 37.5zM172 525q39 0 58 25q16 21 16 50q0 35 -20.5 56.5t-53.5 21.5q-32 0 -53 -21.5t-21 -56.5t20.5 -55t53.5 -20z" />
    <glyph glyph-name="periodcentered.cap" horiz-adv-x="217" 
d="M103 472q25 0 42.5 -17.5t17.5 -42.5q0 -24 -17.5 -41.5t-42.5 -17.5q-24 0 -41 17.5t-17 41.5q0 25 17 42.5t41 17.5z" />
    <glyph glyph-name="exclamdown.cap" horiz-adv-x="279" 
d="M141 639q-25 0 -42.5 17.5t-17.5 42.5q0 24 17.5 41.5t42.5 17.5q24 0 41 -17.5t17 -41.5q0 -25 -17 -42.5t-41 -17.5zM95 545h91l5 -545h-101z" />
    <glyph glyph-name="questiondown.cap" horiz-adv-x="501" 
d="M256 639q-25 0 -42.5 17.5t-17.5 42.5q0 24 17.5 41.5t42.5 17.5q24 0 41 -17.5t17 -41.5q0 -25 -17 -42.5t-41 -17.5zM250 -10q-107 0 -168.5 59.5t-61.5 155.5q0 61 26 99t80 77q45 34 63.5 63.5t18.5 73.5v27h92v-31q0 -50 -22.5 -87t-73.5 -78q-46 -34 -68.5 -65.5
t-22.5 -77.5q0 -60 36.5 -98t100.5 -38q63 0 99.5 34t43.5 95l91 -6q-7 -94 -69.5 -148.5t-164.5 -54.5z" />
    <glyph glyph-name="braceleft.cap" horiz-adv-x="251" 
d="M228 697h-6q-50 0 -66 -38.5t0 -122.5q6 -34 8 -58t-1 -48t-16.5 -38.5t-37.5 -18.5q24 -5 37.5 -19.5t16.5 -38.5t1 -48t-8 -58q-16 -85 0 -123.5t66 -38.5h6v-72h-6q-91 0 -132.5 58.5t-18.5 168.5q19 62 12 98t-55 36h-8v72h8q48 0 55 36.5t-12 98.5q-23 109 19 168
t132 59h6v-73z" />
    <glyph glyph-name="braceright.cap" horiz-adv-x="251" 
d="M23 770h6q91 0 132.5 -59t18.5 -168q-7 -29 -10 -46.5t-3 -36.5t5 -29t17.5 -16.5t33.5 -6.5h8v-72h-8q-21 0 -33 -6.5t-18 -16t-5.5 -29t3.5 -36.5t10 -46q23 -110 -18.5 -168.5t-132.5 -58.5h-6v72h6q50 0 66 38.5t0 123.5q-6 34 -8 58t1 48t16.5 38.5t37.5 19.5
q-24 4 -37.5 18.5t-16.5 38.5t-1 48t8 58q16 84 0 122.5t-66 38.5h-6v73z" />
    <glyph glyph-name="bracketleft.cap" horiz-adv-x="264" 
d="M243 698h-99v-651h99v-72h-185v795h185v-72z" />
    <glyph glyph-name="bracketright.cap" horiz-adv-x="271" 
d="M207 -25h-184v72h98v651h-98v72h184v-795z" />
    <glyph glyph-name="parenleft.cap" horiz-adv-x="255" 
d="M161 770l75 -27q-110 -174 -110 -381q0 -206 110 -380l-75 -28q-121 181 -121 408q0 228 121 408z" />
    <glyph glyph-name="parenright.cap" horiz-adv-x="253" 
d="M20 743l75 27q121 -180 121 -408q0 -227 -121 -408l-75 28q110 174 110 380q0 207 -110 381z" />
    <glyph glyph-name="emdash.cap" horiz-adv-x="795" 
d="M750 336h-705v81h705v-81z" />
    <glyph glyph-name="endash.cap" horiz-adv-x="563" 
d="M518 336h-473v81h473v-81z" />
    <glyph glyph-name="hyphen.cap" horiz-adv-x="403" 
d="M358 336h-313v81h313v-81z" />
    <glyph glyph-name="guillemotleft.cap" horiz-adv-x="531" 
d="M262 559l-149 -176l149 -176l-68 -44l-179 220l179 219zM510 559l-149 -176l149 -176l-68 -44l-179 220l179 219z" />
    <glyph glyph-name="guillemotright.cap" horiz-adv-x="531" 
d="M268 383l-180 -220l-68 44l150 176l-150 176l68 43zM515 383l-179 -220l-68 44l149 176l-149 176l68 43z" />
    <glyph glyph-name="guilsinglleft.cap" horiz-adv-x="306" 
d="M287 546l-167 -163l167 -163l-63 -55l-209 218l209 218z" />
    <glyph glyph-name="guilsinglright.cap" horiz-adv-x="306" 
d="M292 383l-210 -218l-62 55l167 163l-167 163l62 55z" />
    <glyph glyph-name="emdash_guilsinglright" horiz-adv-x="852" 
d="M817 258l-230 -236l-61 55l146 146h-627v72h626l-145 143l61 55z" />
    <glyph glyph-name="endash_guilsinglright" 
d="M556 258l-230 -236l-61 55l147 146h-367v72h365l-145 143l61 55z" />
    <glyph glyph-name="guilsinglleft_emdash" horiz-adv-x="852" 
d="M326 438l-145 -143h626v-72h-628l147 -146l-60 -55l-231 236l231 235z" />
    <glyph glyph-name="guilsinglleft_endash" 
d="M326 438l-145 -143h365v-72h-367l147 -146l-60 -55l-231 236l231 235z" />
    <glyph glyph-name="at.cap" horiz-adv-x="806" 
d="M403 732q155 0 258 -102.5t103 -256.5q0 -98 -38.5 -150.5t-105.5 -52.5q-76 0 -93 62q-45 -65 -141 -65q-84 0 -136 56t-52 152t52 152.5t136 56.5q100 0 138 -66v54h64v-289q0 -57 47 -57q34 0 54 39t20 108q0 131 -87.5 219t-218.5 88q-133 0 -219.5 -87.5
t-86.5 -219.5q0 -134 87.5 -220t214.5 -86q105 0 185 50l15 -50q-86 -53 -200 -53q-152 0 -254.5 101.5t-102.5 257.5q0 155 102 257t259 102zM521 364v23q0 67 -34 102t-91 35q-58 0 -94 -39.5t-36 -109.5t36 -109.5t94 -39.5q57 0 91 35.5t34 102.5z" />
    <glyph glyph-name="acute.case" horiz-adv-x="306" 
d="M99 797h-82l149 141h120z" />
    <glyph glyph-name="breve.case" horiz-adv-x="353" 
d="M262 940h71q0 -64 -42.5 -98.5t-114.5 -34.5t-114.5 34.5t-42.5 98.5h71q0 -34 23 -53.5t63 -19.5q39 0 62.5 19.5t23.5 53.5z" />
    <glyph glyph-name="caron.case" horiz-adv-x="356" 
d="M219 797h-82l-119 143h74l86 -90l85 90h75z" />
    <glyph glyph-name="circumflex.case" horiz-adv-x="356" 
d="M338 797h-75l-85 90l-86 -90h-74l119 143h82z" />
    <glyph glyph-name="dieresis.case" horiz-adv-x="294" 
d="M72 922q22 0 37 -15t15 -36q0 -22 -15 -37t-37 -15t-37 15t-15 37q0 21 15 36t37 15zM222 922q22 0 36.5 -15t14.5 -36q0 -22 -14.5 -37t-36.5 -15t-37.5 15t-15.5 37q0 21 15.5 36t37.5 15z" />
    <glyph glyph-name="dotaccent.case" horiz-adv-x="155" 
d="M78 927q23 0 40 -17.5t17 -40.5q0 -25 -16.5 -41.5t-40.5 -16.5t-41.5 17t-17.5 41q0 23 17.5 40.5t41.5 17.5z" />
    <glyph glyph-name="grave.case" horiz-adv-x="306" 
d="M288 797h-82l-187 141h121z" />
    <glyph glyph-name="hungarumlaut.case" horiz-adv-x="346" 
d="M85 800h-69l61 148h82zM255 800h-68l60 148h82z" />
    <glyph glyph-name="macron.case" horiz-adv-x="294" 
d="M279 836h-264v67h264v-67z" />
    <glyph glyph-name="ring.case" horiz-adv-x="247" 
d="M124 991q43 0 73 -28t30 -70t-30 -70t-73 -28q-44 0 -73.5 28t-29.5 70t29.5 70t73.5 28zM124 944q-23 0 -38 -14t-15 -37q0 -22 15 -36.5t38 -14.5t37.5 14.5t14.5 36.5q0 23 -14.5 37t-37.5 14z" />
    <glyph glyph-name="tilde.case" horiz-adv-x="361" 
d="M108 938q33 0 73.5 -31t62.5 -31q24 0 36.5 15t13.5 40h49q3 -50 -22 -85t-68 -35q-33 0 -73.5 30.5t-62.5 30.5q-47 0 -49 -54h-50q-3 50 22 85t68 35z" />
    <glyph glyph-name="anneau" horiz-adv-x="583" 
d="M292 759q110 0 185 -73t75 -180t-75 -179.5t-185 -72.5q-112 0 -187 72.5t-75 179.5q0 108 75 180.5t187 72.5zM291 727q-97 0 -161 -63t-64 -158t64 -157.5t161 -62.5t161 62.5t64 157.5t-64 158t-161 63z" />
    <glyph glyph-name="null" horiz-adv-x="600" 
 />
    </font>
</defs>
</svg>
